<?xml version="1.0" standalone="no"?>
<!DOCTYPE svg PUBLIC "-//W3C//DTD SVG 1.1//EN" "http://www.w3.org/Graphics/SVG/1.1/DTD/svg11.dtd" >
<svg>
<metadata>
Created by FontForge 20090622 at Thu Aug 15 10:58:20 2019
 By deploy user
Copyright (c) 2014 by Katatrad Aksorn Co.,Ltd.. All rights reserved. This font is an exclusive license to True Digital Content &#38; Media Company Limited
</metadata>
<defs>
<font id="Anuyart-Regular" horiz-adv-x="0" >
  <font-face 
    font-family="Anuyart Regular"
    font-weight="400"
    font-stretch="normal"
    units-per-em="1000"
    panose-1="2 11 5 0 4 2 0 2 0 3"
    ascent="750"
    descent="-250"
    x-height="462"
    cap-height="650"
    bbox="-588 -393 1219 955"
    underline-thickness="30"
    underline-position="-20"
    unicode-range="U+000D-U+FB02"
  />
<missing-glyph horiz-adv-x="806" 
d="M747 0h-683v944h683v-944zM722 25v892h-633v-892h633z" />
    <glyph glyph-name="fi" unicode="fi" horiz-adv-x="574" 
d="M509 0h-92v405h-224v-405h-92v405h-68v57h68v56q0 141 133 141q56 0 103 -29l-23 -55q-25 20 -58 20q-62 0 -62 -71v-62h315v-462zM513 565h-100v85h100v-85z" />
    <glyph glyph-name="fl" unicode="fl" horiz-adv-x="568" 
d="M506 0h-92v582q-20 -11 -51 -11q-19 0 -55 12q-35 12 -55 12q-59 0 -59 -71v-62h123v-57h-124v-405h-92v405h-68v57h68v56q0 141 144 141q31 0 69 -15t65 -15q51 0 127 24v-653z" />
    <glyph glyph-name="uni0E5A" unicode="&#xe2f;&#xe2f;" horiz-adv-x="705" 
d="M439 0h-92v352q-53 -65 -143 -65q-68 0 -108 37q-43 39 -43 112v108h92v-107q0 -87 85 -87q75 0 117 82v112h92v-207q72 14 117 95v119h92v-551h-92v349q-35 -59 -117 -72v-277z" />
    <glyph glyph-name="uni0E4F.liga" unicode="&#xe4f;&#x22;" horiz-adv-x="588" 
d="M526 218q0 -100 -66 -163q-64 -62 -162 -62t-162 62q-66 63 -66 163t66 163q64 62 162 62t162 -62q66 -63 66 -163zM434 82q54 53 54 136t-54 136q-54 52 -136 52q-81 0 -135 -52q-55 -53 -55 -136t55 -136q54 -52 135 -52q82 0 136 52zM424 218q0 -56 -36 -91
q-35 -34 -90 -34t-90 34q-36 35 -36 91t36 91q35 34 90 34t90 -34q36 -35 36 -91zM364 153q25 24 25 65t-25 65t-66 24q-40 0 -65 -24t-25 -65t25 -65t65 -24q41 0 66 24zM241 491h-35l-7 99q-5 65 -7 99h62zM387 491h-35l-7 99q-5 65 -7 99h63z" />
    <glyph glyph-name="uni0E24.liga" unicode="&#xe24;&#xe32;" horiz-adv-x="851" 
d="M797 -182h-92v565q0 103 -98 103q-64 0 -112 -35q23 -35 23 -83v-550h-92v547q0 121 -142 121q-115 0 -148 -80l81 -45v-30q-56 -17 -56 -86v-130q0 -50 48 -50h47v-65h-86q-102 0 -102 100v148q0 78 58 100l-83 50q16 69 85 111q66 41 155 41q109 0 172 -48
q68 48 167 48q175 0 175 -169v-563z" />
    <glyph glyph-name="uni0E26.liga" unicode="&#xe26;&#xe32;" horiz-adv-x="875" 
d="M821 -182h-92v565q0 103 -98 103q-66 0 -114 -37q22 -35 22 -81v-550h-92v547q0 121 -142 121q-115 0 -148 -80l84 -45v-30q-44 -14 -44 -74v-161q0 -96 -92 -96h-70v65h29q23 0 32 10t9 38v139q0 75 45 96l-86 50q16 69 85 111q66 41 155 41q112 0 173 -49q69 49 170 49
q174 0 174 -169v-563z" />
    <glyph glyph-name=".notdef" horiz-adv-x="806" 
d="M747 0h-683v944h683v-944zM722 25v892h-633v-892h633z" />
    <glyph glyph-name="space" unicode=" " horiz-adv-x="280" 
 />
    <glyph glyph-name="exclam" unicode="!" horiz-adv-x="268" 
d="M180 0h-98v94h98v-94zM167 179h-70l-15 208v263h99v-263z" />
    <glyph glyph-name="quotedbl" unicode="&#x22;" horiz-adv-x="341" 
d="M119 445h-49l-17 229h82zM272 445h-49l-18 229h83z" />
    <glyph glyph-name="numbersign" unicode="#" horiz-adv-x="705" 
d="M453 0h-85l47 193h-189l-48 -193h-84l46 193h-90v57h104l39 160h-97v57h111l45 183h85l-44 -183h189l44 183h86l-45 -183h88v-57h-101l-40 -160h95v-57h-109zM430 249l38 162h-190l-38 -162h190z" />
    <glyph glyph-name="dollar" unicode="$" horiz-adv-x="533" 
d="M314 -77h-82v69q-119 8 -185 60l36 64q73 -51 170 -51q147 0 147 96q0 52 -46 87q-28 20 -109 53q-92 37 -131 72q-53 47 -53 120q0 67 44 110q45 43 127 52v73h82v-70q97 -7 162 -58l-37 -61q-69 46 -146 46q-136 0 -136 -91q0 -44 40 -74q26 -19 102 -50
q109 -45 151 -87q46 -46 46 -117q0 -70 -48 -116t-134 -56v-71z" />
    <glyph glyph-name="percent" unicode="%" horiz-adv-x="874" 
d="M313 0h-86l342 651h86zM201 323q90 0 90 135t-90 135q-91 0 -91 -135t91 -135zM201 266q-77 0 -120 48q-45 50 -45 144t45 144q43 48 120 48t120 -48q44 -50 44 -144t-44 -144q-43 -48 -120 -48zM674 48q90 0 90 136q0 134 -90 134t-90 -134q0 -136 90 -136zM674 -8
q-77 0 -120 48q-45 50 -45 144q0 93 45 143q43 48 120 48t120 -48q44 -50 44 -143q0 -94 -44 -144q-43 -48 -120 -48z" />
    <glyph glyph-name="ampersand" unicode="&#x26;" horiz-adv-x="677" 
d="M643 31l-68 -37l-79 77q-85 -83 -226 -83q-105 0 -162 48q-54 45 -54 124q0 124 141 199q-92 89 -92 157q0 144 178 144q177 0 177 -137q0 -97 -136 -168l176 -181q25 63 28 157h77q0 -118 -56 -206zM251 315q-102 -68 -102 -142q0 -54 39 -84q38 -29 103 -29
q90 0 150 63zM197 519q0 -56 82 -130q87 62 87 125q0 87 -85 87q-84 0 -84 -82z" />
    <glyph glyph-name="quotesingle" unicode="'" horiz-adv-x="193" 
d="M121 445h-49l-17 229h83z" />
    <glyph glyph-name="parenleft" unicode="(" horiz-adv-x="377" 
d="M195 -57q-131 161 -131 366t131 366h106q-137 -171 -137 -366t137 -366h-106z" />
    <glyph glyph-name="parenright" unicode=")" horiz-adv-x="377" 
d="M76 -57q137 171 137 366t-137 366h106q131 -161 131 -366t-131 -366h-106z" />
    <glyph glyph-name="asterisk" unicode="*" horiz-adv-x="586" 
d="M451 312l-75 -45l-83 152l-83 -153l-75 45l127 135l-195 33l34 84l170 -79l-22 180h88l-22 -179l170 79l34 -84l-195 -33z" />
    <glyph glyph-name="plus" unicode="+" horiz-adv-x="548" 
d="M317 49h-87v195h-189v69h189v194h87v-194h189v-69h-189v-195z" />
    <glyph glyph-name="comma" unicode="," horiz-adv-x="219" 
d="M76 -143h-62l65 252h102z" />
    <glyph glyph-name="hyphen" unicode="-" horiz-adv-x="373" 
d="M315 215h-257v70h257v-70z" />
    <glyph glyph-name="period" unicode="." horiz-adv-x="219" 
d="M163 0h-107v110h107v-110z" />
    <glyph glyph-name="slash" unicode="/" horiz-adv-x="340" 
d="M83 -80h-89l264 788h91z" />
    <glyph glyph-name="zero" unicode="0" horiz-adv-x="548" 
d="M274 67q143 0 143 258q0 256 -143 256t-143 -256q0 -258 143 -258zM516 325q0 -335 -242 -335t-242 335t242 335t242 -335z" />
    <glyph glyph-name="one" unicode="1" horiz-adv-x="548" 
d="M500 0h-398v73h152v490l-128 -82l-31 66l173 113h84v-587h148v-73z" />
    <glyph glyph-name="two" unicode="2" horiz-adv-x="548" 
d="M488 0h-424v83q0 93 162 219q85 66 111 93q51 52 51 98q0 88 -122 88q-96 0 -169 -45l-27 68q85 56 207 56q213 0 213 -173q0 -97 -163 -219q-86 -65 -112 -92q-52 -52 -52 -102h325v-74z" />
    <glyph glyph-name="three" unicode="3" horiz-adv-x="548" 
d="M363 350q62 -14 95 -62q31 -45 31 -108q0 -87 -62 -139q-61 -51 -159 -51q-128 0 -210 55l27 68q72 -46 175 -46q66 0 102 38q31 33 31 82q0 125 -145 125h-74v75h91q57 0 88 29q28 26 28 69q0 96 -121 96q-102 0 -175 -45l-27 68q85 56 210 56q92 0 148 -39
q62 -43 62 -123q0 -55 -30 -94q-31 -41 -85 -52v-2z" />
    <glyph glyph-name="four" unicode="4" horiz-adv-x="548" 
d="M445 0h-98v149h-311v82l301 429h108v-436h78v-75h-78v-149zM347 224v327l-227 -327h227z" />
    <glyph glyph-name="five" unicode="5" horiz-adv-x="548" 
d="M83 113q72 -46 162 -46q64 0 101 37q38 37 38 99q0 133 -169 133q-65 0 -137 -16l21 330h353v-74h-263l-12 -174q34 6 84 6q221 0 221 -206q0 -102 -68 -159q-62 -53 -158 -53q-118 0 -200 55z" />
    <glyph glyph-name="six" unicode="6" horiz-adv-x="548" 
d="M445 544q-61 39 -138 39q-80 0 -124 -68q-43 -66 -44 -179q40 96 156 96q93 0 149 -55q57 -57 57 -155q0 -101 -58 -165q-60 -67 -158 -67q-110 0 -171 72q-67 78 -67 233q0 365 256 365q105 0 175 -55zM150 215q0 -67 37 -111q36 -45 93 -45q54 0 91 45q36 46 36 113
t-35 108q-35 40 -92 40q-56 0 -93 -42t-37 -108z" />
    <glyph glyph-name="seven" unicode="7" horiz-adv-x="548" 
d="M199 0h-107l295 576h-330v74h438v-71z" />
    <glyph glyph-name="eight" unicode="8" horiz-adv-x="548" 
d="M374 340q142 -54 142 -163q0 -89 -65 -139q-63 -48 -171 -48t-171 48q-65 50 -65 139q0 117 136 174v2q-48 15 -81 52q-37 41 -37 90q0 77 60 121q58 44 158 44t159 -44t59 -121q0 -50 -38 -94q-35 -41 -86 -59v-2zM420 178q0 51 -44 84q-38 28 -129 56
q-107 -43 -107 -140q0 -54 40 -88q40 -35 100 -35t100 35q40 34 40 88zM158 495q0 -86 149 -124q95 47 95 122q0 45 -35 74q-35 28 -87 28q-51 0 -86 -28q-36 -29 -36 -72z" />
    <glyph glyph-name="nine" unicode="9" horiz-adv-x="548" 
d="M113 108q58 -42 135 -42q81 0 124 71q39 66 39 179q-42 -94 -157 -94q-95 0 -150 55q-56 56 -56 153q0 101 59 165q60 65 158 65q110 0 171 -72q66 -78 66 -233q0 -365 -251 -365q-107 0 -171 57zM269 290q56 0 93 40t37 105q0 67 -36 111q-37 45 -94 45q-54 0 -90 -44
q-37 -45 -37 -112t35 -107q35 -38 92 -38z" />
    <glyph glyph-name="colon" unicode=":" horiz-adv-x="223" 
d="M162 0h-101v102h101v-102zM162 364h-101v102h101v-102z" />
    <glyph glyph-name="semicolon" unicode=";" horiz-adv-x="223" 
d="M63 -172h-58l73 276h99zM162 364h-101v102h101v-102z" />
    <glyph glyph-name="less" unicode="&#x3c;" horiz-adv-x="548" 
d="M470 37l-392 205v62l392 204v-74l-300 -162l300 -161v-74z" />
    <glyph glyph-name="equal" unicode="=" horiz-adv-x="548" 
d="M473 303h-398v70h398v-70zM473 126h-398v69h398v-69z" />
    <glyph glyph-name="greater" unicode="&#x3e;" horiz-adv-x="548" 
d="M470 242l-392 -205v74l300 161l-300 162v74l392 -204v-62z" />
    <glyph glyph-name="question" unicode="?" horiz-adv-x="502" 
d="M256 156h-81v66q0 78 89 151q88 73 88 127q0 87 -114 87q-89 0 -156 -48l-30 60q77 62 205 62q83 0 135 -34q59 -40 59 -116q0 -86 -97 -160q-98 -74 -98 -137v-58zM265 0h-98v94h98v-94z" />
    <glyph glyph-name="at" unicode="@" horiz-adv-x="870" 
d="M590 -161q-76 -17 -162 -17q-156 0 -252 105q-100 107 -100 290q0 166 104 273t269 107q167 0 265 -110q91 -102 91 -256q0 -119 -59 -231h-164l-39 55q-67 -63 -134 -63q-76 0 -119 60q-41 56 -41 152q0 103 49 160q49 58 141 58q78 0 156 -39v-292l30 -38h74
q37 87 37 177q0 130 -73 214q-79 90 -216 90q-132 0 -217 -90q-84 -90 -84 -230q0 -151 80 -242q78 -90 208 -90q78 0 156 19v-62zM532 341q-58 21 -98 21q-113 0 -113 -153q0 -159 104 -159q43 0 107 66v225z" />
    <glyph glyph-name="A" unicode="A" horiz-adv-x="646" 
d="M433 234l-111 336l-110 -336h221zM609 0h-103l-53 160h-261l-53 -160h-102l224 650h125z" />
    <glyph glyph-name="B" unicode="B" horiz-adv-x="568" 
d="M62 0v650h233q100 0 153 -43q52 -41 52 -118q0 -119 -109 -154v-2q130 -24 130 -152q0 -181 -214 -181h-245zM290 72q68 0 100 24q34 26 34 87q0 57 -35 84q-35 26 -115 26h-113v-221h129zM272 364q132 0 132 112q0 102 -122 102h-121v-214h111z" />
    <glyph glyph-name="C" unicode="C" horiz-adv-x="597" 
d="M550 41q-75 -51 -199 -51q-141 0 -223 92q-81 90 -81 242q0 151 82 243q82 93 220 93q116 0 192 -49l-38 -64q-57 38 -143 38q-95 0 -156 -72t-61 -189q0 -118 60 -188q60 -71 160 -71q91 0 152 42z" />
    <glyph glyph-name="D" unicode="D" horiz-adv-x="599" 
d="M62 0v650h204q290 0 290 -325t-290 -325h-204zM264 74q106 0 152 61q43 59 43 190t-43 189q-46 62 -154 62h-101v-502h103z" />
    <glyph glyph-name="E" unicode="E" horiz-adv-x="514" 
d="M469 0h-407v650h407v-74h-308v-212h244v-74h-244v-217h308v-73z" />
    <glyph glyph-name="F" unicode="F" horiz-adv-x="491" 
d="M161 0h-99v650h407v-74h-308v-212h244v-74h-244v-290z" />
    <glyph glyph-name="G" unicode="G" horiz-adv-x="621" 
d="M572 50q-81 -60 -220 -60q-142 0 -224 92q-81 90 -81 242q0 151 83 243q83 93 221 93q118 0 194 -49l-38 -65q-58 39 -145 39q-96 0 -157 -72q-62 -72 -62 -189q0 -118 60 -188q60 -71 159 -71q79 0 122 31v180h-159v73h247v-299z" />
    <glyph glyph-name="H" unicode="H" horiz-adv-x="622" 
d="M560 0h-98v286h-302v-286h-98v650h98v-290h302v290h98v-650z" />
    <glyph glyph-name="I" unicode="I" horiz-adv-x="222" 
d="M160 0h-98v650h98v-650z" />
    <glyph glyph-name="J" unicode="J" horiz-adv-x="436" 
d="M379 189q0 -199 -195 -199q-97 0 -170 53l37 61q52 -39 117 -39q62 0 88 29q24 26 24 87v469h99v-461z" />
    <glyph glyph-name="K" unicode="K" horiz-adv-x="590" 
d="M160 0h-98v650h98v-650zM579 0h-117l-290 341l277 309h117l-280 -309z" />
    <glyph glyph-name="L" unicode="L" horiz-adv-x="491" 
d="M469 0h-407v650h99v-577h308v-73z" />
    <glyph glyph-name="M" unicode="M" horiz-adv-x="715" 
d="M653 0h-97v478l-179 -413h-39l-179 413v-478h-97v650h101l194 -456l195 456h101v-650z" />
    <glyph glyph-name="N" unicode="N" horiz-adv-x="619" 
d="M557 0h-93l-304 502v-502h-98v650h98l299 -503v503h98v-650z" />
    <glyph glyph-name="O" unicode="O" horiz-adv-x="666" 
d="M333 65q189 0 189 260t-189 260t-189 -260t189 -260zM333 -10q-134 0 -210 88q-76 89 -76 247t76 247q76 88 210 88q135 0 210 -88q76 -88 76 -247t-76 -247q-75 -88 -210 -88z" />
    <glyph glyph-name="P" unicode="P" horiz-adv-x="541" 
d="M265 293q148 0 148 143q0 140 -149 140h-103v-283h104zM161 0h-99v650h210q238 0 238 -214q0 -216 -238 -216h-111v-220z" />
    <glyph glyph-name="Q" unicode="Q" horiz-adv-x="670" 
d="M573 -92q-175 30 -237 82q-135 -1 -212 88t-77 247t76 247q76 88 210 88q135 0 210 -88q76 -88 76 -247q0 -253 -186 -313l140 -25v-79zM333 65q189 0 189 260t-189 260t-189 -260t189 -260z" />
    <glyph glyph-name="R" unicode="R" horiz-adv-x="571" 
d="M534 0h-100l-53 164q-16 49 -36 66q-24 20 -77 20h-105v-250h-99v650h224q106 0 164 -49q59 -50 59 -145q0 -136 -115 -179q52 -19 77 -94zM282 326q133 0 133 130q0 120 -135 120h-117v-250h119z" />
    <glyph glyph-name="S" unicode="S" horiz-adv-x="541" 
d="M82 116q75 -51 170 -51q145 0 145 99q0 52 -45 85q-27 20 -108 52q-91 36 -132 73q-52 48 -52 119q0 77 57 122q58 45 161 45q116 0 197 -60l-38 -61q-69 46 -155 46q-127 0 -127 -91q0 -43 50 -77q29 -19 119 -56q82 -35 117 -67q54 -50 54 -128q0 -85 -68 -132
q-63 -44 -168 -44q-131 0 -213 62z" />
    <glyph glyph-name="T" unicode="T" horiz-adv-x="518" 
d="M308 0h-98v576h-196v74h490v-74h-196v-576z" />
    <glyph glyph-name="U" unicode="U" horiz-adv-x="614" 
d="M557 212q0 -108 -68 -166q-65 -56 -182 -56t-182 56q-68 58 -68 166v438h99v-437q0 -148 151 -148t151 148v437h99v-438z" />
    <glyph glyph-name="V" unicode="V" horiz-adv-x="646" 
d="M388 0h-129l-222 650h102l183 -567l184 567h103z" />
    <glyph glyph-name="W" unicode="W" horiz-adv-x="823" 
d="M641 0h-97l-132 517l-133 -517h-97l-145 650h99l106 -529l131 509h80l128 -509l108 529h97z" />
    <glyph glyph-name="X" unicode="X" horiz-adv-x="617" 
d="M583 0h-109l-166 258l-169 -258h-105l215 329l-205 321h108l158 -252l160 252h104l-204 -319z" />
    <glyph glyph-name="Y" unicode="Y" horiz-adv-x="607" 
d="M352 0h-98v229l-220 421h102l167 -340l168 340h102l-221 -421v-229z" />
    <glyph glyph-name="Z" unicode="Z" horiz-adv-x="561" 
d="M518 0h-475v65l353 511h-330v74h443v-67l-352 -510h361v-73z" />
    <glyph glyph-name="bracketleft" unicode="[" horiz-adv-x="360" 
d="M308 -95h-230v815h230v-73h-133v-669h133v-73z" />
    <glyph glyph-name="backslash" unicode="\" horiz-adv-x="318" 
d="M337 -80h-89l-267 788h91z" />
    <glyph glyph-name="bracketright" unicode="]" horiz-adv-x="360" 
d="M282 -95h-230v73h133v669h-133v73h230v-815z" />
    <glyph glyph-name="asciicircum" unicode="^" horiz-adv-x="608" 
d="M549 322h-85l-158 257l-152 -258h-86l211 339h60z" />
    <glyph glyph-name="underscore" unicode="_" horiz-adv-x="433" 
d="M433 -123h-433v72h433v-72z" />
    <glyph glyph-name="grave" unicode="`" horiz-adv-x="430" 
d="M299 515h-68l-100 139h92z" />
    <glyph glyph-name="a" unicode="a" horiz-adv-x="495" 
d="M438 0h-82l-10 62q-48 -72 -158 -72q-62 0 -103 35q-42 36 -42 93q0 92 85 131q70 31 218 31v19q0 57 -36 86q-29 23 -73 23q-70 0 -130 -39l-31 54q74 49 178 49q97 0 141 -46q43 -46 43 -146v-280zM346 228q-116 0 -164 -23t-48 -79q0 -36 25 -58t65 -22q57 0 90 31
q32 31 32 84v67z" />
    <glyph glyph-name="b" unicode="b" horiz-adv-x="538" 
d="M145 0h-83v650h92v-237q55 59 144 59q93 0 146 -60q54 -63 54 -175q0 -111 -53 -177q-55 -70 -152 -70q-93 0 -142 70zM154 130q34 -76 113 -76q138 0 138 182q0 172 -132 172q-80 0 -119 -66v-212z" />
    <glyph glyph-name="c" unicode="c" horiz-adv-x="485" 
d="M440 32q-58 -42 -153 -42q-110 0 -174 64q-66 65 -66 177q0 113 65 177q64 64 173 64q90 0 147 -42l-28 -55q-41 33 -111 33q-69 0 -112 -47q-43 -48 -43 -130t43 -130q42 -47 113 -47q77 0 119 34z" />
    <glyph glyph-name="d" unicode="d" horiz-adv-x="538" 
d="M476 0h-83l-6 60q-48 -70 -142 -70q-97 0 -152 66q-53 64 -53 174q0 113 54 178q54 64 146 64q95 0 144 -59v237h92v-650zM384 342q-36 66 -118 66q-133 0 -133 -179q0 -175 139 -175q77 0 112 76v212z" />
    <glyph glyph-name="e" unicode="e" horiz-adv-x="521" 
d="M397 274q-1 59 -33 95q-34 39 -94 39q-122 0 -137 -134h264zM451 35q-68 -45 -159 -45q-114 0 -179 65q-66 64 -66 178q0 112 61 176q59 63 159 63q207 0 207 -255h-342q4 -163 168 -163q69 0 123 38z" />
    <glyph glyph-name="f" unicode="f" horiz-adv-x="352" 
d="M193 0h-92v405h-68v57h68v56q0 141 133 141q56 0 103 -29l-23 -55q-25 20 -58 20q-62 0 -62 -71v-62h123v-57h-124v-405z" />
    <glyph glyph-name="g" unicode="g" horiz-adv-x="541" 
d="M479 17q0 -211 -218 -211q-94 0 -161 42l27 57q56 -35 123 -35q137 0 137 136v39q-48 -55 -143 -55q-93 0 -147 64t-54 177q0 111 54 176q55 65 152 65t141 -69l6 59h83v-445zM387 334q-30 74 -112 74q-139 0 -139 -176q0 -178 133 -178q83 0 118 63v217z" />
    <glyph glyph-name="h" unicode="h" horiz-adv-x="531" 
d="M474 0h-92v314q0 94 -95 94q-78 0 -133 -67v-341h-92v650h92v-243q68 65 170 65q150 0 150 -149v-323z" />
    <glyph glyph-name="i" unicode="i" horiz-adv-x="222" 
d="M157 0h-92v462h92v-462zM161 565h-100v85h100v-85z" />
    <glyph glyph-name="j" unicode="j" horiz-adv-x="297" 
d="M232 -29q0 -155 -147 -155q-74 0 -123 41l30 53q33 -28 78 -28q69 0 69 89v491h93v-491zM235 565h-100v85h100v-85z" />
    <glyph glyph-name="k" unicode="k" horiz-adv-x="487" 
d="M473 0h-98l-209 244l190 218h99l-190 -218zM154 0h-92v650h92v-650z" />
    <glyph glyph-name="l" unicode="l" horiz-adv-x="216" 
d="M154 0h-92v650h92v-650z" />
    <glyph glyph-name="m" unicode="m" horiz-adv-x="760" 
d="M703 0h-90v312q0 96 -86 96q-69 0 -103 -53q6 -28 6 -61v-294h-84v305q0 103 -82 103q-68 0 -112 -65v-343h-90v462h80l7 -53q50 63 133 63q84 0 121 -60q54 60 156 60q83 0 117 -53q27 -43 27 -131v-288z" />
    <glyph glyph-name="n" unicode="n" horiz-adv-x="531" 
d="M474 0h-92v314q0 94 -95 94q-78 0 -133 -67v-341h-92v462h84l7 -56q69 66 171 66q150 0 150 -149v-323z" />
    <glyph glyph-name="o" unicode="o" horiz-adv-x="544" 
d="M272 54q66 0 101 48q34 47 34 129t-34 129q-35 48 -101 48t-102 -48q-34 -47 -34 -129t34 -129q36 -48 102 -48zM272 -10q-110 0 -170 65q-59 64 -59 176t59 176q60 65 170 65q109 0 170 -65q59 -64 59 -176t-59 -176q-61 -65 -170 -65z" />
    <glyph glyph-name="p" unicode="p" horiz-adv-x="538" 
d="M154 -188h-92v650h83l6 -60q50 70 144 70q98 0 151 -64q52 -62 52 -174q0 -113 -55 -179q-55 -65 -147 -65q-91 0 -142 57v-235zM154 120q38 -66 118 -66q133 0 133 180q0 174 -137 174q-81 0 -114 -76v-212z" />
    <glyph glyph-name="q" unicode="q" horiz-adv-x="538" 
d="M476 -188h-92v235q-50 -57 -142 -57t-147 64q-55 66 -55 178q0 111 53 175q55 65 152 65q94 0 142 -70l6 60h83v-650zM384 332q-30 76 -114 76q-137 0 -137 -175q0 -179 134 -179q80 0 117 66v212z" />
    <glyph glyph-name="r" unicode="r" horiz-adv-x="341" 
d="M154 0h-92v462h82l8 -65q63 75 172 75v-69q-110 0 -170 -73v-330z" />
    <glyph glyph-name="s" unicode="s" horiz-adv-x="439" 
d="M271 265q126 -50 126 -140q0 -135 -196 -135q-93 0 -159 51l28 54q57 -41 131 -41q107 0 107 70q0 33 -40 56q-14 9 -86 37q-127 50 -127 136q0 58 46 89q44 30 120 30q97 0 159 -44l-30 -54q-51 34 -119 34q-86 0 -86 -58q0 -28 39 -49z" />
    <glyph glyph-name="t" unicode="t" horiz-adv-x="376" 
d="M359 24q-48 -34 -119 -34q-141 0 -141 151v264h-67v57h68l15 121h77v-121h145v-57h-145v-268q0 -84 70 -84q45 0 74 26z" />
    <glyph glyph-name="u" unicode="u" horiz-adv-x="531" 
d="M469 0h-83l-8 56q-57 -66 -154 -66q-75 0 -120 41q-47 43 -47 117v314h92v-309q0 -99 110 -99q75 0 118 67v341h92v-462z" />
    <glyph glyph-name="v" unicode="v" horiz-adv-x="497" 
d="M289 0h-82l-187 462h96l132 -362l133 362h96z" />
    <glyph glyph-name="w" unicode="w" horiz-adv-x="680" 
d="M523 0h-80l-103 351l-103 -351h-80l-127 462h89l84 -355l101 341h72l101 -341l84 355h89z" />
    <glyph glyph-name="x" unicode="x" horiz-adv-x="498" 
d="M468 0h-98l-121 177l-124 -177h-95l166 231l-164 231h97l121 -178l120 178h96l-164 -230z" />
    <glyph glyph-name="y" unicode="y" horiz-adv-x="502" 
d="M217 -178h-89l76 188l-184 452h91l138 -372l142 372h91z" />
    <glyph glyph-name="z" unicode="z" horiz-adv-x="455" 
d="M412 0h-369v54l257 351h-241v57h344v-49l-260 -356h269v-57z" />
    <glyph glyph-name="braceleft" unicode="{" horiz-adv-x="425" 
d="M367 -94h-90q-43 0 -69 24q-26 23 -26 65v151q0 68 -25 97q-26 30 -94 33v74q68 3 94 34q25 28 25 96v151q0 42 26 66q26 23 69 23h90v-57h-48q-49 0 -49 -53v-138q0 -124 -128 -159q128 -35 128 -159v-138q0 -53 49 -53h48v-57z" />
    <glyph glyph-name="bar" unicode="|" horiz-adv-x="267" 
d="M167 -156h-67v860h67v-860z" />
    <glyph glyph-name="braceright" unicode="}" horiz-adv-x="425" 
d="M243 -5q0 -42 -26 -65q-26 -24 -69 -24h-90v57h48q49 0 49 53v138q0 124 128 159q-128 35 -128 159v138q0 53 -49 53h-48v57h90q43 0 69 -23q26 -24 26 -66v-151q0 -68 25 -96q26 -31 94 -34v-74q-68 -3 -94 -33q-25 -29 -25 -97v-151z" />
    <glyph glyph-name="asciitilde" unicode="~" horiz-adv-x="663" 
d="M611 430q-5 -238 -153 -238q-57 0 -134 89q-78 88 -116 88q-92 0 -95 -177h-62q1 112 44 176q42 62 112 62q72 0 147 -88t113 -88q78 0 84 176h60z" />
    <glyph glyph-name="exclamdown" unicode="&#xa1;" horiz-adv-x="268" 
d="M180 368h-98v94h98v-94zM181 -188h-99v263l15 208h70l14 -208v-263z" />
    <glyph glyph-name="cent" unicode="&#xa2;" horiz-adv-x="485" 
d="M440 32q-44 -32 -113 -38v-68h-81v67q-92 10 -145 72q-54 63 -54 166q0 102 54 166q53 62 145 72v66h81v-67q60 -6 105 -38l-28 -55q-41 33 -111 33q-69 0 -112 -47q-43 -48 -43 -130t43 -130q42 -47 113 -47q77 0 119 34z" />
    <glyph glyph-name="sterling" unicode="&#xa3;" horiz-adv-x="495" 
d="M437 17q-49 -28 -89 -28q-31 0 -90 17q-60 17 -93 17q-54 0 -91 -22l-26 60q98 65 98 166q0 19 -7 49h-81v56h63q-45 71 -45 125q0 76 52 123q51 46 131 46q172 0 186 -167h-74q-12 102 -103 102q-44 0 -72 -28t-28 -77q0 -48 42 -124h161v-56h-147q7 -22 7 -46
q0 -83 -64 -158q23 5 56 5q25 0 66 -12t64 -12q38 0 84 27v-63z" />
    <glyph glyph-name="yen" unicode="&#xa5;" horiz-adv-x="569" 
d="M492 138h-159v-138h-98v138h-158v58h158v33l-40 76h-118v58h88l-150 287h102l167 -340l168 340h102l-151 -287h89v-58h-119l-40 -76v-33h159v-58z" />
    <glyph glyph-name="section" unicode="&#xa7;" horiz-adv-x="568" 
d="M90 -119q81 -52 176 -52q69 0 111 35q39 33 39 80q0 57 -55 94q-30 21 -120 54q-86 32 -120 58q-55 42 -55 107q0 83 71 127q-73 50 -73 119q0 73 61 115q60 42 164 42q117 0 200 -60l-34 -59q-75 48 -162 48q-133 0 -133 -90q0 -42 54 -73q16 -9 119 -51q80 -34 118 -68
q54 -50 54 -123q0 -72 -50 -125q51 -40 51 -113q0 -87 -68 -139q-65 -49 -168 -49q-129 0 -214 62zM392 101q32 40 32 81q0 68 -72 108q-25 13 -70 30l-73 27q-57 -28 -57 -82q0 -55 85 -94z" />
    <glyph glyph-name="dieresis" unicode="&#xa8;" horiz-adv-x="360" 
d="M126 515h-94v97h94v-97zM327 515h-93v97h93v-97z" />
    <glyph glyph-name="copyright" unicode="&#xa9;" horiz-adv-x="763" 
d="M532 246q-26 -111 -151 -111q-74 0 -121 50q-49 51 -49 136t49 137q47 50 121 50q124 0 151 -112h-50q-21 66 -100 66q-58 0 -89 -39q-30 -38 -30 -102t30 -102q31 -39 89 -39q79 0 100 66h50zM703 323q0 -138 -92 -229q-92 -90 -231 -90q-141 0 -231 90t-90 229
q0 140 90 230q90 91 231 91t232 -91q91 -90 91 -230zM380 46q121 0 200 79q78 78 78 198q0 121 -77 199q-78 79 -201 79t-200 -79q-77 -77 -77 -199q0 -121 77 -198q77 -79 200 -79z" />
    <glyph glyph-name="ordfeminine" unicode="&#xaa;" horiz-adv-x="338" 
d="M293 350h-60l-7 40q-35 -47 -102 -47q-39 0 -65 23q-27 23 -27 62q0 108 193 108q0 41 -13 58q-14 18 -51 18q-52 0 -85 -26l-24 42q46 32 115 32q126 0 126 -106v-204zM225 498q-68 0 -97 -14q-29 -15 -29 -51q0 -47 52 -47q34 0 55 21q19 21 19 51v40z" />
    <glyph glyph-name="guillemotleft" unicode="&#xab;" horiz-adv-x="410" 
d="M222 32h-82l-98 189l98 190h82l-95 -190zM368 32h-82l-99 189l99 190h82l-95 -190z" />
    <glyph glyph-name="logicalnot" unicode="&#xac;" horiz-adv-x="475" 
d="M442 113h-75v107h-334v61h409v-168z" />
    <glyph glyph-name="registered" unicode="&#xae;" horiz-adv-x="382" 
d="M270 398h-37l-15 47q-7 22 -33 22h-28v-69h-35v191h78q66 0 66 -58q0 -44 -37 -52q15 -4 23 -29zM197 496q33 0 33 35q0 30 -32 30h-41v-65h40zM191 356q61 0 97 38q35 37 35 97t-35 97q-36 37 -97 37q-62 0 -98 -37q-35 -37 -35 -97t35 -97q36 -38 98 -38zM191 332
q-75 0 -119 46q-42 44 -42 113t42 113q44 46 119 46t119 -46q42 -44 42 -113t-43 -113q-44 -46 -118 -46z" />
    <glyph glyph-name="macron" unicode="&#xaf;" horiz-adv-x="430" 
d="M430 706h-430v59h430v-59z" />
    <glyph glyph-name="degree" unicode="&#xb0;" horiz-adv-x="289" 
d="M145 539q29 0 49 19q19 20 19 49t-19 48q-20 19 -49 19t-49 -19q-19 -19 -19 -48t19 -49q20 -19 49 -19zM145 500q-47 0 -78 30t-31 77t31 77q31 29 78 29t77 -29q31 -30 31 -77q0 -48 -31 -77q-30 -30 -77 -30z" />
    <glyph glyph-name="plusminus" unicode="&#xb1;" horiz-adv-x="608" 
d="M560 278h-213v-167h-88v167h-212v68h212v168h88v-168h213v-68zM560 17h-513v62h513v-62z" />
    <glyph glyph-name="acute" unicode="&#xb4;" horiz-adv-x="430" 
d="M199 515h-68l76 139h92z" />
    <glyph glyph-name="mu" unicode="&#xb5;" horiz-adv-x="526" 
d="M522 8q-49 -17 -81 -17q-54 0 -61 63q-48 -62 -128 -62q-71 0 -101 48v-242h-92v664h92v-302q0 -106 110 -106q75 0 118 67v341h92v-372q0 -30 24 -30q9 0 27 8v-60z" />
    <glyph glyph-name="paragraph" unicode="&#xb6;" horiz-adv-x="473" 
d="M425 -36h-41v634h-85v-634h-57v318q-91 1 -145 42q-61 47 -61 140q0 85 50 133q55 53 162 53h177v-686z" />
    <glyph glyph-name="periodcentered" unicode="&#xb7;" horiz-adv-x="232" 
d="M117 212q-27 0 -44 17t-17 45t17 45q17 18 44 18q26 0 43 -18q17 -17 17 -45q0 -27 -17 -44q-17 -18 -43 -18z" />
    <glyph glyph-name="cedilla" unicode="&#xb8;" horiz-adv-x="430" 
d="M123 -154q32 -9 53 -9q77 0 77 51q0 45 -91 45l19 75h56l-12 -48q91 -4 91 -76q0 -94 -122 -94q-34 0 -80 14z" />
    <glyph glyph-name="ordmasculine" unicode="&#xba;" horiz-adv-x="341" 
d="M170 396q78 0 78 108t-78 108t-78 -108t78 -108zM319 504q0 -156 -149 -156t-149 156t149 156t149 -156z" />
    <glyph glyph-name="guillemotright" unicode="&#xbb;" horiz-adv-x="410" 
d="M270 32h-82l95 189l-95 190h82l98 -190zM124 32h-82l95 189l-95 190h82l99 -190z" />
    <glyph glyph-name="questiondown" unicode="&#xbf;" horiz-adv-x="502" 
d="M459 -137q-73 -63 -203 -63q-84 0 -137 35q-59 40 -59 115q0 91 98 163q51 39 67 56q30 34 30 78v59h80v-67q0 -78 -88 -152q-88 -73 -88 -126q0 -85 115 -85q91 0 155 46zM344 367h-98v95h98v-95z" />
    <glyph glyph-name="Agrave" unicode="&#xc0;" horiz-adv-x="646" 
d="M433 234l-111 336l-110 -336h221zM609 0h-103l-53 160h-261l-53 -160h-102l224 650h125zM378 703h-68l-100 139h92z" />
    <glyph glyph-name="Aacute" unicode="&#xc1;" horiz-adv-x="646" 
d="M433 234l-111 336l-110 -336h221zM609 0h-103l-53 160h-261l-53 -160h-102l224 650h125zM341 703h-68l76 139h92z" />
    <glyph glyph-name="Acircumflex" unicode="&#xc2;" horiz-adv-x="646" 
d="M433 234l-111 336l-110 -336h221zM609 0h-103l-53 160h-261l-53 -160h-102l224 650h125zM455 703h-70l-62 94l-62 -94h-70l97 142h70z" />
    <glyph glyph-name="Atilde" unicode="&#xc3;" horiz-adv-x="646" 
d="M433 234l-111 336l-110 -336h221zM609 0h-103l-53 160h-261l-53 -160h-102l224 650h125zM484 764q-45 -61 -93 -61q-20 0 -65 24t-70 24q-35 0 -58 -48l-37 38q31 67 93 67q28 0 75 -22q47 -23 62 -23q30 0 55 40z" />
    <glyph glyph-name="Adieresis" unicode="&#xc4;" horiz-adv-x="646" 
d="M433 234l-111 336l-110 -336h221zM609 0h-103l-53 160h-261l-53 -160h-102l224 650h125zM269 703h-94v97h94v-97zM470 703h-93v97h93v-97z" />
    <glyph glyph-name="Aring" unicode="&#xc5;" horiz-adv-x="646" 
d="M433 234l-111 336l-110 -336h221zM609 0h-103l-53 160h-261l-53 -160h-102l224 650h125zM323 722q25 0 42 18q16 17 16 41t-16 41q-17 17 -42 17q-26 0 -43 -17q-16 -17 -16 -41q0 -25 16 -41q17 -18 43 -18zM323 673q-48 0 -79 32q-32 31 -32 76q0 46 32 77q31 31 79 31
q47 0 79 -31q31 -31 31 -77q0 -45 -31 -76q-32 -32 -79 -32z" />
    <glyph glyph-name="AE" unicode="&#xc6;" horiz-adv-x="800" 
d="M764 0h-394v159h-184l-68 -159h-102l275 650h473v-74h-296v-212h257v-75h-257v-216h296v-73zM370 234v342h-16l-147 -342h163z" />
    <glyph glyph-name="Ccedilla" unicode="&#xc7;" horiz-adv-x="597" 
d="M550 41q-67 -45 -171 -50l-9 -39q91 -4 91 -76q0 -94 -122 -94q-34 0 -80 14l9 42q32 -9 53 -9q77 0 77 51q0 45 -91 45l16 66q-129 9 -203 100q-73 89 -73 233q0 151 82 243q82 93 220 93q116 0 192 -49l-38 -64q-57 38 -143 38q-95 0 -156 -72t-61 -189q0 -118 60 -188
q60 -71 160 -71q91 0 152 42z" />
    <glyph glyph-name="Egrave" unicode="&#xc8;" horiz-adv-x="514" 
d="M469 0h-407v650h407v-74h-308v-212h244v-74h-244v-217h308v-73zM341 703h-68l-100 139h92z" />
    <glyph glyph-name="Eacute" unicode="&#xc9;" horiz-adv-x="514" 
d="M469 0h-407v650h407v-74h-308v-212h244v-74h-244v-217h308v-73zM241 703h-68l76 139h92z" />
    <glyph glyph-name="Ecircumflex" unicode="&#xca;" horiz-adv-x="514" 
d="M469 0h-407v650h407v-74h-308v-212h244v-74h-244v-217h308v-73zM389 703h-70l-62 94l-62 -94h-70l97 142h70z" />
    <glyph glyph-name="Edieresis" unicode="&#xcb;" horiz-adv-x="514" 
d="M469 0h-407v650h407v-74h-308v-212h244v-74h-244v-217h308v-73zM203 703h-94v97h94v-97zM404 703h-93v97h93v-97z" />
    <glyph glyph-name="Igrave" unicode="&#xcc;" horiz-adv-x="222" 
d="M160 0h-98v650h98v-650zM170 703h-68l-100 139h92z" />
    <glyph glyph-name="Iacute" unicode="&#xcd;" horiz-adv-x="222" 
d="M160 0h-98v650h98v-650zM126 703h-68l76 139h92z" />
    <glyph glyph-name="Icircumflex" unicode="&#xce;" horiz-adv-x="222" 
d="M160 0h-98v650h98v-650zM249 703h-70l-62 94l-62 -94h-70l97 142h70z" />
    <glyph glyph-name="Idieresis" unicode="&#xcf;" horiz-adv-x="222" 
d="M160 0h-98v650h98v-650zM58 703h-94v97h94v-97zM259 703h-93v97h93v-97z" />
    <glyph glyph-name="Ntilde" unicode="&#xd1;" horiz-adv-x="619" 
d="M557 0h-93l-304 502v-502h-98v650h98l299 -503v503h98v-650zM471 764q-45 -61 -93 -61q-20 0 -65 24t-70 24q-35 0 -58 -48l-37 38q31 67 93 67q28 0 75 -22q47 -23 62 -23q30 0 55 40z" />
    <glyph glyph-name="Ograve" unicode="&#xd2;" horiz-adv-x="666" 
d="M333 65q189 0 189 260t-189 260t-189 -260t189 -260zM333 -10q-134 0 -210 88q-76 89 -76 247t76 247q76 88 210 88q135 0 210 -88q76 -88 76 -247t-76 -247q-75 -88 -210 -88zM417 703h-68l-100 139h92z" />
    <glyph glyph-name="Oacute" unicode="&#xd3;" horiz-adv-x="666" 
d="M333 65q189 0 189 260t-189 260t-189 -260t189 -260zM333 -10q-134 0 -210 88q-76 89 -76 247t76 247q76 88 210 88q135 0 210 -88q76 -88 76 -247t-76 -247q-75 -88 -210 -88zM317 703h-68l76 139h92z" />
    <glyph glyph-name="Ocircumflex" unicode="&#xd4;" horiz-adv-x="666" 
d="M333 65q189 0 189 260t-189 260t-189 -260t189 -260zM333 -10q-134 0 -210 88q-76 89 -76 247t76 247q76 88 210 88q135 0 210 -88q76 -88 76 -247t-76 -247q-75 -88 -210 -88zM465 703h-70l-62 94l-62 -94h-70l97 142h70z" />
    <glyph glyph-name="Otilde" unicode="&#xd5;" horiz-adv-x="666" 
d="M333 65q189 0 189 260t-189 260t-189 -260t189 -260zM333 -10q-134 0 -210 88q-76 89 -76 247t76 247q76 88 210 88q135 0 210 -88q76 -88 76 -247t-76 -247q-75 -88 -210 -88zM494 764q-45 -61 -93 -61q-20 0 -65 24t-70 24q-35 0 -58 -48l-37 38q31 67 93 67
q28 0 75 -22q47 -23 62 -23q30 0 55 40z" />
    <glyph glyph-name="Odieresis" unicode="&#xd6;" horiz-adv-x="666" 
d="M333 65q189 0 189 260t-189 260t-189 -260t189 -260zM333 -10q-134 0 -210 88q-76 89 -76 247t76 247q76 88 210 88q135 0 210 -88q76 -88 76 -247t-76 -247q-75 -88 -210 -88zM279 703h-94v97h94v-97zM480 703h-93v97h93v-97z" />
    <glyph glyph-name="Oslash" unicode="&#xd8;" horiz-adv-x="666" 
d="M194 -63h-82l48 106q-113 85 -113 282q0 158 76 247q76 88 210 88q56 0 104 -17l23 50h84l-39 -85q114 -86 114 -283q0 -159 -76 -247q-75 -88 -210 -88q-58 0 -107 17zM259 77q32 -12 74 -12q189 0 189 260q0 133 -58 196zM404 573q-30 12 -71 12q-189 0 -189 -260
q0 -132 58 -193z" />
    <glyph glyph-name="Ugrave" unicode="&#xd9;" horiz-adv-x="614" 
d="M557 212q0 -108 -68 -166q-65 -56 -182 -56t-182 56q-68 58 -68 166v438h99v-437q0 -148 151 -148t151 148v437h99v-438zM391 703h-68l-100 139h92z" />
    <glyph glyph-name="Uacute" unicode="&#xda;" horiz-adv-x="614" 
d="M557 212q0 -108 -68 -166q-65 -56 -182 -56t-182 56q-68 58 -68 166v438h99v-437q0 -148 151 -148t151 148v437h99v-438zM291 703h-68l76 139h92z" />
    <glyph glyph-name="Ucircumflex" unicode="&#xdb;" horiz-adv-x="614" 
d="M557 212q0 -108 -68 -166q-65 -56 -182 -56t-182 56q-68 58 -68 166v438h99v-437q0 -148 151 -148t151 148v437h99v-438zM439 703h-70l-62 94l-62 -94h-70l97 142h70z" />
    <glyph glyph-name="Udieresis" unicode="&#xdc;" horiz-adv-x="614" 
d="M557 212q0 -108 -68 -166q-65 -56 -182 -56t-182 56q-68 58 -68 166v438h99v-437q0 -148 151 -148t151 148v437h99v-438zM253 703h-94v97h94v-97zM454 703h-93v97h93v-97z" />
    <glyph glyph-name="uni00DF" unicode="&#xdf;" horiz-adv-x="594" 
d="M37 -194q25 56 25 115v483q0 252 232 252q109 0 165 -48q48 -42 48 -111q0 -55 -46 -98t-46 -66q0 -21 73 -76q72 -55 72 -120q0 -68 -52 -108q-51 -39 -131 -39q-102 0 -150 74l38 51q44 -58 113 -58q39 0 63 23q27 24 27 67q0 40 -73 91q-74 50 -74 96q0 42 47 83
q46 41 46 73q0 96 -124 96q-138 0 -138 -179v-486q0 -74 -31 -135z" />
    <glyph glyph-name="agrave" unicode="&#xe0;" horiz-adv-x="495" 
d="M438 0h-82l-10 62q-48 -72 -158 -72q-62 0 -103 35q-42 36 -42 93q0 92 85 131q70 31 218 31v19q0 57 -36 86q-29 23 -73 23q-70 0 -130 -39l-31 54q74 49 178 49q97 0 141 -46q43 -46 43 -146v-280zM346 228q-116 0 -164 -23t-48 -79q0 -36 25 -58t65 -22q57 0 90 31
q32 31 32 84v67zM331 515h-68l-100 139h92z" />
    <glyph glyph-name="aacute" unicode="&#xe1;" horiz-adv-x="495" 
d="M438 0h-82l-10 62q-48 -72 -158 -72q-62 0 -103 35q-42 36 -42 93q0 92 85 131q70 31 218 31v19q0 57 -36 86q-29 23 -73 23q-70 0 -130 -39l-31 54q74 49 178 49q97 0 141 -46q43 -46 43 -146v-280zM346 228q-116 0 -164 -23t-48 -79q0 -36 25 -58t65 -22q57 0 90 31
q32 31 32 84v67zM231 515h-68l76 139h92z" />
    <glyph glyph-name="acircumflex" unicode="&#xe2;" horiz-adv-x="495" 
d="M438 0h-82l-10 62q-48 -72 -158 -72q-62 0 -103 35q-42 36 -42 93q0 92 85 131q70 31 218 31v19q0 57 -36 86q-29 23 -73 23q-70 0 -130 -39l-31 54q74 49 178 49q97 0 141 -46q43 -46 43 -146v-280zM346 228q-116 0 -164 -23t-48 -79q0 -36 25 -58t65 -22q57 0 90 31
q32 31 32 84v67zM379 515h-70l-62 94l-62 -94h-70l97 142h70z" />
    <glyph glyph-name="atilde" unicode="&#xe3;" horiz-adv-x="495" 
d="M438 0h-82l-10 62q-48 -72 -158 -72q-62 0 -103 35q-42 36 -42 93q0 92 85 131q70 31 218 31v19q0 57 -36 86q-29 23 -73 23q-70 0 -130 -39l-31 54q74 49 178 49q97 0 141 -46q43 -46 43 -146v-280zM346 228q-116 0 -164 -23t-48 -79q0 -36 25 -58t65 -22q57 0 90 31
q32 31 32 84v67zM409 576q-45 -61 -93 -61q-20 0 -65 24t-70 24q-35 0 -58 -48l-37 38q31 67 93 67q28 0 75 -22q47 -23 62 -23q30 0 55 40z" />
    <glyph glyph-name="adieresis" unicode="&#xe4;" horiz-adv-x="495" 
d="M438 0h-82l-10 62q-48 -72 -158 -72q-62 0 -103 35q-42 36 -42 93q0 92 85 131q70 31 218 31v19q0 57 -36 86q-29 23 -73 23q-70 0 -130 -39l-31 54q74 49 178 49q97 0 141 -46q43 -46 43 -146v-280zM346 228q-116 0 -164 -23t-48 -79q0 -36 25 -58t65 -22q57 0 90 31
q32 31 32 84v67zM194 515h-94v97h94v-97zM395 515h-93v97h93v-97z" />
    <glyph glyph-name="aring" unicode="&#xe5;" horiz-adv-x="495" 
d="M438 0h-82l-10 62q-48 -72 -158 -72q-62 0 -103 35q-42 36 -42 93q0 92 85 131q70 31 218 31v19q0 57 -36 86q-29 23 -73 23q-70 0 -130 -39l-31 54q74 49 178 49q97 0 141 -46q43 -46 43 -146v-280zM346 228q-116 0 -164 -23t-48 -79q0 -36 25 -58t65 -22q57 0 90 31
q32 31 32 84v67zM267 543q25 0 42 18q16 17 16 41t-16 41q-17 17 -42 17q-26 0 -43 -17q-16 -17 -16 -41q0 -25 16 -41q17 -18 43 -18zM267 494q-48 0 -79 32q-32 31 -32 76q0 46 32 77q31 31 79 31q47 0 79 -31q31 -31 31 -77q0 -45 -31 -76q-32 -32 -79 -32z" />
    <glyph glyph-name="ae" unicode="&#xe6;" horiz-adv-x="777" 
d="M708 35q-70 -45 -159 -45q-120 0 -177 69q-49 -69 -171 -69q-72 0 -115 37q-43 36 -43 95q0 148 264 152q6 53 25 90q-22 44 -95 44q-70 0 -130 -39l-31 54q74 49 178 49q94 0 134 -52q54 52 136 52q206 0 206 -255h-341q1 -80 48 -123q43 -40 120 -40q69 0 123 38z
M654 274q-1 59 -33 95q-35 39 -94 39q-122 0 -137 -134h264zM224 46q78 0 109 55q-26 49 -29 121q-170 -4 -170 -96q0 -36 25 -58t65 -22z" />
    <glyph glyph-name="ccedilla" unicode="&#xe7;" horiz-adv-x="485" 
d="M440 32q-52 -38 -135 -41l-9 -39q91 -4 91 -76q0 -94 -122 -94q-34 0 -80 14l9 42q32 -9 53 -9q77 0 77 51q0 45 -91 45l17 67q-94 11 -148 73q-55 64 -55 166q0 113 65 177q64 64 173 64q90 0 147 -42l-28 -55q-41 33 -111 33q-69 0 -112 -47q-43 -48 -43 -130t43 -130
q42 -47 113 -47q77 0 119 34z" />
    <glyph glyph-name="egrave" unicode="&#xe8;" horiz-adv-x="521" 
d="M397 274q-1 59 -33 95q-34 39 -94 39q-122 0 -137 -134h264zM451 35q-68 -45 -159 -45q-114 0 -179 65q-66 64 -66 178q0 112 61 176q59 63 159 63q207 0 207 -255h-342q4 -163 168 -163q69 0 123 38zM344 515h-68l-100 139h92z" />
    <glyph glyph-name="eacute" unicode="&#xe9;" horiz-adv-x="521" 
d="M397 274q-1 59 -33 95q-34 39 -94 39q-122 0 -137 -134h264zM451 35q-68 -45 -159 -45q-114 0 -179 65q-66 64 -66 178q0 112 61 176q59 63 159 63q207 0 207 -255h-342q4 -163 168 -163q69 0 123 38zM272 515h-68l76 139h92z" />
    <glyph glyph-name="ecircumflex" unicode="&#xea;" horiz-adv-x="521" 
d="M397 274q-1 59 -33 95q-34 39 -94 39q-122 0 -137 -134h264zM451 35q-68 -45 -159 -45q-114 0 -179 65q-66 64 -66 178q0 112 61 176q59 63 159 63q207 0 207 -255h-342q4 -163 168 -163q69 0 123 38zM392 515h-70l-62 94l-62 -94h-70l97 142h70z" />
    <glyph glyph-name="edieresis" unicode="&#xeb;" horiz-adv-x="521" 
d="M397 274q-1 59 -33 95q-34 39 -94 39q-122 0 -137 -134h264zM451 35q-68 -45 -159 -45q-114 0 -179 65q-66 64 -66 178q0 112 61 176q59 63 159 63q207 0 207 -255h-342q4 -163 168 -163q69 0 123 38zM207 515h-94v97h94v-97zM408 515h-93v97h93v-97z" />
    <glyph glyph-name="igrave" unicode="&#xec;" horiz-adv-x="224" 
d="M159 0h-92v462h92v-462zM169 515h-68l-100 139h92z" />
    <glyph glyph-name="iacute" unicode="&#xed;" horiz-adv-x="224" 
d="M159 0h-92v462h92v-462zM131 515h-68l76 139h92z" />
    <glyph glyph-name="icircumflex" unicode="&#xee;" horiz-adv-x="224" 
d="M159 0h-92v462h92v-462zM250 515h-70l-62 94l-62 -94h-70l97 142h70z" />
    <glyph glyph-name="idieresis" unicode="&#xef;" horiz-adv-x="224" 
d="M159 0h-92v462h92v-462zM59 515h-94v97h94v-97zM260 515h-93v97h93v-97z" />
    <glyph glyph-name="ntilde" unicode="&#xf1;" horiz-adv-x="531" 
d="M474 0h-92v314q0 94 -95 94q-78 0 -133 -67v-341h-92v462h84l7 -56q69 66 171 66q150 0 150 -149v-323zM427 576q-45 -61 -93 -61q-20 0 -65 24t-70 24q-35 0 -58 -48l-37 38q31 67 93 67q28 0 75 -22q47 -23 62 -23q30 0 55 40z" />
    <glyph glyph-name="ograve" unicode="&#xf2;" horiz-adv-x="544" 
d="M272 54q66 0 101 48q34 47 34 129t-34 129q-35 48 -101 48t-102 -48q-34 -47 -34 -129t34 -129q36 -48 102 -48zM272 -10q-110 0 -170 65q-59 64 -59 176t59 176q60 65 170 65q109 0 170 -65q59 -64 59 -176t-59 -176q-61 -65 -170 -65zM356 515h-68l-100 139h92z" />
    <glyph glyph-name="oacute" unicode="&#xf3;" horiz-adv-x="544" 
d="M272 54q66 0 101 48q34 47 34 129t-34 129q-35 48 -101 48t-102 -48q-34 -47 -34 -129t34 -129q36 -48 102 -48zM442 55q-61 -65 -170 -65q-110 0 -170 65q-59 64 -59 176t59 176q60 65 170 65q109 0 170 -65q59 -64 59 -176t-59 -176zM256 515h-68l76 139h92z" />
    <glyph glyph-name="ocircumflex" unicode="&#xf4;" horiz-adv-x="544" 
d="M272 54q66 0 101 48q34 47 34 129t-34 129q-35 48 -101 48t-102 -48q-34 -47 -34 -129t34 -129q36 -48 102 -48zM272 -10q-110 0 -170 65q-59 64 -59 176t59 176q60 65 170 65q109 0 170 -65q59 -64 59 -176t-59 -176q-61 -65 -170 -65zM404 515h-70l-62 94l-62 -94h-70
l97 142h70z" />
    <glyph glyph-name="otilde" unicode="&#xf5;" horiz-adv-x="544" 
d="M272 54q66 0 101 48q34 47 34 129t-34 129q-35 48 -101 48t-102 -48q-34 -47 -34 -129t34 -129q36 -48 102 -48zM442 55q-61 -65 -170 -65q-110 0 -170 65q-59 64 -59 176t59 176q60 65 170 65q109 0 170 -65q59 -64 59 -176t-59 -176zM433 576q-45 -61 -93 -61
q-20 0 -65 24t-70 24q-35 0 -58 -48l-37 38q31 67 93 67q28 0 75 -22q47 -23 62 -23q30 0 55 40z" />
    <glyph glyph-name="odieresis" unicode="&#xf6;" horiz-adv-x="544" 
d="M272 54q66 0 101 48q34 47 34 129t-34 129q-35 48 -101 48t-102 -48q-34 -47 -34 -129t34 -129q36 -48 102 -48zM272 -10q-110 0 -170 65q-59 64 -59 176t59 176q60 65 170 65q109 0 170 -65q59 -64 59 -176t-59 -176q-61 -65 -170 -65zM218 515h-94v97h94v-97zM419 515
h-93v97h93v-97z" />
    <glyph glyph-name="divide" unicode="&#xf7;" horiz-adv-x="548" 
d="M474 228h-401v71h401v-71zM324 50h-101v98h101v-98zM324 379h-101v98h101v-98z" />
    <glyph glyph-name="oslash" unicode="&#xf8;" horiz-adv-x="522" 
d="M151 -51h-56l34 76q-93 63 -93 203q0 111 61 175q60 63 165 63q36 0 67 -9l25 56h58l-34 -74q109 -57 109 -211q0 -111 -60 -174q-61 -64 -165 -64q-45 0 -87 16zM207 67q22 -13 55 -13q61 0 96 48q34 47 34 126q0 95 -54 135zM298 396q-16 6 -36 6q-62 0 -97 -48
q-34 -47 -34 -126q0 -82 39 -123z" />
    <glyph glyph-name="ugrave" unicode="&#xf9;" horiz-adv-x="531" 
d="M469 0h-83l-8 56q-57 -66 -154 -66q-75 0 -120 41q-47 43 -47 117v314h92v-309q0 -99 110 -99q75 0 118 67v341h92v-462zM349 515h-68l-100 139h92z" />
    <glyph glyph-name="uacute" unicode="&#xfa;" horiz-adv-x="531" 
d="M469 0h-83l-8 56q-57 -66 -154 -66q-75 0 -120 41q-47 43 -47 117v314h92v-309q0 -99 110 -99q75 0 118 67v341h92v-462zM249 515h-68l76 139h92z" />
    <glyph glyph-name="ucircumflex" unicode="&#xfb;" horiz-adv-x="531" 
d="M469 0h-83l-8 56q-57 -66 -154 -66q-75 0 -120 41q-47 43 -47 117v314h92v-309q0 -99 110 -99q75 0 118 67v341h92v-462zM397 515h-70l-62 94l-62 -94h-70l97 142h70z" />
    <glyph glyph-name="udieresis" unicode="&#xfc;" horiz-adv-x="531" 
d="M469 0h-83l-8 56q-57 -66 -154 -66q-75 0 -120 41q-47 43 -47 117v314h92v-309q0 -99 110 -99q75 0 118 67v341h92v-462zM212 515h-94v97h94v-97zM413 515h-93v97h93v-97z" />
    <glyph glyph-name="ydieresis" unicode="&#xff;" horiz-adv-x="532" 
d="M232 -178h-89l76 188l-184 452h91l138 -372l142 372h91zM212 515h-94v97h94v-97zM413 515h-93v97h93v-97z" />
    <glyph glyph-name="dotlessi" unicode="&#x131;" horiz-adv-x="224" 
d="M159 0h-92v462h92v-462z" />
    <glyph glyph-name="OE" unicode="&#x152;" horiz-adv-x="944" 
d="M908 0h-407v78q-59 -88 -190 -88q-121 0 -194 88q-75 91 -75 247t75 247q73 88 194 88q130 0 190 -88v78h407v-74h-309v-194h270v-73h-270v-236h309v-73zM328 65q143 0 173 160v243q-54 117 -173 117q-189 0 -189 -260t189 -260z" />
    <glyph glyph-name="oe" unicode="&#x153;" horiz-adv-x="798" 
d="M738 34q-68 -44 -156 -44q-104 0 -167 58q-58 -58 -153 -58q-105 0 -165 64q-61 63 -61 174t61 175q60 63 165 63q91 0 147 -53q56 59 146 59q203 0 203 -250h-334q5 -168 166 -168q66 0 120 37zM262 54q66 0 101 56q-25 50 -25 123q0 70 22 118q-35 51 -98 51
q-62 0 -97 -48q-34 -47 -34 -126t34 -126q35 -48 97 -48zM679 279q-1 57 -33 93q-33 36 -88 36q-118 0 -133 -129h254z" />
    <glyph glyph-name="Ydieresis" unicode="&#x178;" horiz-adv-x="607" 
d="M352 0h-98v229l-220 421h102l167 -340l168 340h102l-221 -421v-229zM250 703h-94v97h94v-97zM451 703h-93v97h93v-97z" />
    <glyph glyph-name="florin" unicode="&#x192;" horiz-adv-x="317" 
d="M126 -3q-21 -98 -125 -98q-60 0 -99 35l27 41q25 -18 55 -18q49 0 59 46l77 366h-84l11 49h85l15 71q24 116 130 116q39 0 80 -19l-16 -44q-17 7 -43 7q-54 0 -69 -65l-15 -66h91l-12 -49h-88z" />
    <glyph glyph-name="circumflex" unicode="&#x2c6;" horiz-adv-x="430" 
d="M347 515h-70l-62 94l-62 -94h-70l97 142h70z" />
    <glyph glyph-name="caron" unicode="&#x2c7;" horiz-adv-x="430" 
d="M251 515h-70l-97 159h74l58 -104l58 104h74z" />
    <glyph glyph-name="breve" unicode="&#x2d8;" horiz-adv-x="430" 
d="M352 719q-22 -128 -146 -128q-120 0 -142 128h69q13 -66 75 -66q64 0 74 66h70z" />
    <glyph glyph-name="dotaccent" unicode="&#x2d9;" horiz-adv-x="430" 
d="M274 609h-119v113h119v-113z" />
    <glyph glyph-name="ring" unicode="&#x2da;" horiz-adv-x="360" 
d="M160 534q25 0 42 18q16 17 16 41t-16 41q-17 17 -42 17q-26 0 -43 -17q-16 -17 -16 -41q0 -25 16 -41q17 -18 43 -18zM160 485q-48 0 -79 32q-32 31 -32 76q0 46 32 77q31 31 79 31q47 0 79 -31q31 -31 31 -77q0 -45 -31 -76q-32 -32 -79 -32z" />
    <glyph glyph-name="ogonek" unicode="&#x2db;" horiz-adv-x="430" 
d="M318 -203q-56 -22 -102 -22q-111 0 -111 102q0 62 45 124h57q-43 -53 -43 -115q0 -58 56 -58q60 0 98 22v-53z" />
    <glyph glyph-name="tilde" unicode="&#x2dc;" horiz-adv-x="430" 
d="M376 576q-45 -61 -93 -61q-20 0 -65 24t-70 24q-35 0 -58 -48l-37 38q31 67 93 67q28 0 75 -22q47 -23 62 -23q30 0 55 40z" />
    <glyph glyph-name="hungarumlaut" unicode="&#x2dd;" horiz-adv-x="430" 
d="M131 515h-68l76 139h92zM266 515h-68l76 139h92z" />
    <glyph glyph-name="endash" unicode="&#x2013;" horiz-adv-x="517" 
d="M467 215h-417v69h417v-69z" />
    <glyph glyph-name="emdash" unicode="&#x2014;" horiz-adv-x="683" 
d="M633 215h-583v70h583v-70z" />
    <glyph glyph-name="quoteleft" unicode="&#x2018;" horiz-adv-x="261" 
d="M148 437h-101l105 252h62z" />
    <glyph glyph-name="quoteright" unicode="&#x2019;" horiz-adv-x="261" 
d="M110 437h-63l66 252h101z" />
    <glyph glyph-name="quotesinglbase" unicode="&#x201a;" horiz-adv-x="261" 
d="M110 -141h-63l66 252h101z" />
    <glyph glyph-name="quotedblleft" unicode="&#x201c;" horiz-adv-x="412" 
d="M299 437h-102l105 252h63zM148 437h-101l105 252h62z" />
    <glyph glyph-name="quotedblright" unicode="&#x201d;" horiz-adv-x="412" 
d="M110 437h-63l66 252h101zM260 437h-63l66 252h102z" />
    <glyph glyph-name="quotedblbase" unicode="&#x201e;" horiz-adv-x="412" 
d="M110 -141h-63l66 252h101zM260 -141h-63l66 252h102z" />
    <glyph glyph-name="dagger" unicode="&#x2020;" horiz-adv-x="454" 
d="M272 0h-88v481h-129v64h129v178h88v-178h127v-64h-127v-481z" />
    <glyph glyph-name="daggerdbl" unicode="&#x2021;" horiz-adv-x="454" 
d="M272 0h-88v199h-129v64h129v218h-129v64h129v178h88v-178h127v-64h-127v-218h127v-64h-127v-199z" />
    <glyph glyph-name="bullet" unicode="&#x2022;" horiz-adv-x="380" 
d="M316 272q0 -57 -35 -92t-91 -35q-57 0 -91 35q-35 35 -35 92t35 92q34 35 91 35q56 0 91 -35q35 -36 35 -92z" />
    <glyph glyph-name="ellipsis" unicode="&#x2026;" horiz-adv-x="634" 
d="M161 0h-107v110h107v-110zM371 0h-107v110h107v-110zM580 0h-107v110h107v-110z" />
    <glyph glyph-name="perthousand" unicode="&#x2030;" horiz-adv-x="1255" 
d="M313 0h-86l342 651h86zM201 323q90 0 90 135t-90 135q-91 0 -91 -135t91 -135zM201 266q-77 0 -120 48q-45 50 -45 144t45 144q43 48 120 48t120 -48q44 -50 44 -144t-44 -144q-43 -48 -120 -48zM674 48q90 0 90 136q0 134 -90 134t-90 -134q0 -136 90 -136zM674 -8
q-77 0 -120 48q-45 50 -45 144q0 93 45 143q43 48 120 48t120 -48q44 -50 44 -143q0 -94 -44 -144q-43 -48 -120 -48zM1055 48q90 0 90 136q0 134 -90 134t-90 -134q0 -136 90 -136zM1055 -8q-77 0 -120 48q-45 50 -45 144q0 93 45 143q43 48 120 48t120 -48q44 -50 44 -143
t-44 -144q-43 -48 -120 -48z" />
    <glyph glyph-name="guilsinglleft" unicode="&#x2039;" horiz-adv-x="283" 
d="M241 32h-83l-116 189l116 190h83l-113 -190z" />
    <glyph glyph-name="guilsinglright" unicode="&#x203a;" horiz-adv-x="283" 
d="M124 32h-82l113 189l-113 190h82l117 -190z" />
    <glyph glyph-name="fraction" unicode="&#x2044;" horiz-adv-x="144" 
d="M-19 0h-62l252 634h59z" />
    <glyph glyph-name="Euro" unicode="&#x20ac;" horiz-adv-x="514" 
d="M487 41q-76 -52 -172 -52q-104 0 -172 60q-64 57 -85 161h-53l23 53h20q-4 30 -4 46q0 17 3 38h-47l23 52h34q21 105 86 164q68 62 172 62q96 0 172 -51l-28 -62q-55 39 -134 39q-144 0 -181 -152h276l-24 -52h-265q-2 -22 -2 -33q0 -24 3 -51h235l-23 -53h-199
q38 -148 180 -148q75 0 134 40z" />
    <glyph glyph-name="trademark" unicode="&#x2122;" horiz-adv-x="625" 
d="M169 397h-54v212h-79v41h210v-41h-77v-212zM579 397h-53v197l-76 -143h-30l-75 143v-197h-54v253h69l75 -149l77 149h67v-253z" />
    <glyph glyph-name="Ohm" unicode="&#x2126;" horiz-adv-x="671" 
d="M464 56h165v-56h-224v129q66 31 106 94q39 63 39 140q0 98 -59 157q-60 59 -156 59t-155 -59t-59 -157q0 -77 40 -140q39 -63 105 -94v-129h-224v56h164v46q-151 96 -151 264q0 128 82 200q75 66 198 66t199 -66q81 -72 81 -200q0 -168 -151 -264v-46z" />
    <glyph glyph-name="partialdiff" unicode="&#x2202;" horiz-adv-x="548" 
d="M111 522q53 143 168 143q143 0 143 -251q0 -178 -64 -298q-69 -128 -180 -128q-66 0 -103 40q-38 41 -38 117q0 95 74 170q88 89 244 97q0 67 -12 106q-13 86 -68 86q-72 0 -111 -109zM297 147q49 97 57 216q-111 -6 -183 -74q-67 -63 -67 -142q0 -99 85 -99q57 0 108 99
z" />
    <glyph glyph-name="Delta" unicode="&#x2206;" horiz-adv-x="592" 
d="M582 0h-572l297 568zM440 56l-165 359l-183 -359h348z" />
    <glyph glyph-name="product" unicode="&#x220f;" horiz-adv-x="654" 
d="M589 -134h-88v676h-346v-676h-88v756h522v-756z" />
    <glyph glyph-name="summation" unicode="&#x2211;" horiz-adv-x="639" 
d="M591 -144h-555v50l329 333l-329 333v50h555v-62h-445l299 -303v-36l-299 -303h445v-62z" />
    <glyph glyph-name="radical" unicode="&#x221a;" horiz-adv-x="493" 
d="M271 13h-69l-100 289h-75v59h124l86 -264l191 562h67z" />
    <glyph glyph-name="infinity" unicode="&#x221e;" horiz-adv-x="846" 
d="M234 201q81 0 148 101q-87 92 -149 92q-45 0 -75 -31q-27 -28 -27 -62q0 -44 26 -71q28 -29 77 -29zM783 291q0 -57 -38.5 -103.5t-127.5 -46.5q-101 0 -197 115q-87 -115 -187 -115q-74 0 -120 44q-47 45 -47 118q0 61 41 102q46 46 124 46q99 0 198 -115
q85 115 187 115q74 0 120 -43q47 -44 47 -117zM528 356q-41 -29 -62 -64q84 -94 150 -94q45 0 74 31q26 28 26 64q0 43 -25 69q-28 28 -77 28q-40 0 -86 -34z" />
    <glyph glyph-name="integral" unicode="&#x222b;" horiz-adv-x="376" 
d="M176 8q-21 -154 -144 -154q-37 0 -61 9l13 57q14 -3 34 -3q73 0 91 115l59 473q19 157 152 157q28 0 51 -5l-13 -57q-15 3 -29 3q-79 0 -93 -111z" />
    <glyph glyph-name="approxequal" unicode="&#x2248;" horiz-adv-x="548" 
d="M488 334q-52 -65 -116 -65q-26 0 -103 32q-77 31 -105 31q-47 0 -94 -49l-20 54q46 63 121 63q37 0 106 -30q69 -31 99 -31q38 0 90 48zM488 159q-52 -65 -116 -65q-28 0 -104 31t-104 31q-45 0 -94 -47l-20 52q47 64 121 64q37 0 106 -31t99 -31q39 0 90 49z" />
    <glyph glyph-name="notequal" unicode="&#x2260;" horiz-adv-x="548" 
d="M473 126h-224l-45 -105h-67l45 105h-107v69h140l48 108h-188v70h221l43 97h68l-44 -97h110v-70h-142l-49 -108h191v-69z" />
    <glyph glyph-name="lessequal" unicode="&#x2264;" horiz-adv-x="548" 
d="M470 111l-392 178v52l392 177v-63l-300 -141l300 -140v-63zM470 20h-392v60h392v-60z" />
    <glyph glyph-name="greaterequal" unicode="&#x2265;" horiz-adv-x="548" 
d="M470 289l-392 -178v63l300 140l-300 141v63l392 -177v-52zM470 20h-392v60h392v-60z" />
    <glyph glyph-name="lozenge" unicode="&#x25ca;" horiz-adv-x="520" 
d="M260 74l150 233l-150 233l-149 -233zM280 3h-39l-196 304l196 305h39l196 -305z" />
    <glyph glyph-name="uni0E33.alt1" horiz-adv-x="413" 
d="M356 0h-93v383q0 103 -98 103q-70 0 -119 -41l-29 59q64 46 164 46q175 0 175 -169v-381zM-207 690q0 -40 -29 -65q-27 -22 -70 -22q-42 0 -69 22q-29 25 -29 65t29 64q27 23 69 23t70 -23q29 -24 29 -64zM-306 649q43 0 43 41t-43 41q-42 0 -42 -41t42 -41z" />
    <glyph glyph-name=".null" 
 />
    <glyph glyph-name=".null" 
 />
    <glyph glyph-name="nonmarkingreturn" unicode="&#xd;" horiz-adv-x="279" 
 />
    <glyph glyph-name="uni0E4E.alt1" 
d="M-259 627h-86q-79 0 -79 64q0 57 74 67q-28 19 -28 48q0 26 22 44q22 19 57 19h114v-39h-73q-42 0 -42 -28q0 -29 32 -29h22v-37h-43q-60 0 -60 -41q0 -30 41 -30h49v-38z" />
    <glyph glyph-name="currency" unicode="&#xa4;" horiz-adv-x="445" 
d="M387 101l-32 -32l-29 28q-40 -35 -103 -35q-64 0 -105 36l-29 -29l-33 32l32 30q-28 40 -28 93q0 56 32 96l-36 34l33 33l34 -34q40 32 100 32q57 0 98 -31l34 33l32 -33l-35 -33q34 -40 34 -97q0 -52 -29 -93zM303 142q31 32 31 82q0 49 -31 81q-31 31 -80 31t-81 -31
q-31 -31 -31 -81t31 -82q31 -31 81 -31q49 0 80 31z" />
    <glyph glyph-name="brokenbar" unicode="&#xa6;" horiz-adv-x="229" 
d="M153 347h-77v374h77v-374zM153 -145h-77v386h77v-386z" />
    <glyph glyph-name="twosuperior" unicode="&#xb2;" horiz-adv-x="270" 
d="M249 350h-223v51q0 47 82 94q81 48 81 76q0 43 -64 43q-43 0 -81 -25l-17 40q46 31 108 31q114 0 114 -89q0 -48 -72 -91q-77 -47 -82 -65q-3 -6 -5 -20h159v-45z" />
    <glyph glyph-name="threesuperior" unicode="&#xb3;" horiz-adv-x="270" 
d="M39 420q40 -24 89 -24q64 0 64 48q0 49 -69 49h-43v45h51q56 0 56 38q0 35 -62 35q-49 0 -86 -25l-16 44q43 30 109 30q114 0 114 -76q0 -54 -51 -67q57 -27 57 -79q0 -43 -34 -68q-33 -23 -84 -23q-67 0 -111 30z" />
    <glyph glyph-name="onesuperior" unicode="&#xb9;" horiz-adv-x="270" 
d="M254 350h-222v43h82v205l-69 -41l-22 41l100 62h52v-267h79v-43z" />
    <glyph glyph-name="onequarter" unicode="&#xbc;" horiz-adv-x="620" 
d="M181 48h-66l358 559h66zM557 0h-60v60h-163v45l152 205h71v-207h37v-43h-37v-60zM497 103v149l-102 -149h102zM252 350h-212v43h78v205l-69 -41l-23 41l101 62h51v-267h74v-43z" />
    <glyph glyph-name="onehalf" unicode="&#xbd;" horiz-adv-x="620" 
d="M175 48h-67l358 559h67zM252 350h-212v43h78v205l-69 -41l-23 41l101 62h51v-267h74v-43zM592 0h-223v50q0 47 81 95t81 76q0 42 -63 42q-45 0 -81 -25l-17 41q46 31 107 31q115 0 115 -89q0 -48 -72 -91q-77 -47 -82 -65q-5 -10 -5 -21h159v-44z" />
    <glyph glyph-name="threequarters" unicode="&#xbe;" horiz-adv-x="620" 
d="M174 48h-67l359 559h66zM557 0h-60v60h-163v45l152 205h71v-207h37v-43h-37v-60zM497 103v149l-102 -149h102zM39 420q40 -24 89 -24q64 0 64 48q0 49 -69 49h-43v45h51q56 0 56 38q0 35 -62 35q-49 0 -86 -25l-16 44q43 30 109 30q114 0 114 -76q0 -54 -51 -67
q57 -27 57 -79q0 -43 -34 -68q-33 -23 -84 -23q-67 0 -111 30z" />
    <glyph glyph-name="Eth" unicode="&#xd0;" horiz-adv-x="599" 
d="M62 0v291h-52v65h52v294h204q290 0 290 -325t-290 -325h-204zM264 74q106 0 152 61q43 59 43 190t-43 189q-46 62 -154 62h-101v-220h140v-65h-140v-217h103z" />
    <glyph glyph-name="multiply" unicode="&#xd7;" horiz-adv-x="548" 
d="M422 31l-152 157l-151 -157l-51 56l152 153l-150 152l51 53l149 -153l150 153l51 -53l-151 -152l153 -153z" />
    <glyph glyph-name="Yacute" unicode="&#xdd;" horiz-adv-x="607" 
d="M352 0h-98v229l-220 421h102l167 -340l168 340h102l-221 -421v-229zM287 703h-68l76 139h92z" />
    <glyph glyph-name="Thorn" unicode="&#xde;" horiz-adv-x="499" 
d="M159 182q35 -5 58 -5q152 0 152 146q0 145 -152 145q-30 0 -58 -4v-282zM159 0h-96v650h96v-115q38 5 69 5q108 0 169 -51q67 -56 67 -166t-67 -166q-61 -51 -169 -51q-31 0 -69 5v-111z" />
    <glyph glyph-name="eth" unicode="&#xf0;" horiz-adv-x="547" 
d="M461 628l-52 -29q92 -88 92 -304q0 -155 -66 -234q-62 -73 -171 -73q-99 0 -159 67q-58 64 -58 165q0 96 59 153q57 55 144 55q118 0 166 -92q-3 167 -78 229l-145 -77l-19 40l110 62q-23 10 -59 10q-43 0 -87 -13l-18 55q57 21 116 21q75 0 131 -32l71 38zM269 57
q56 0 94 46q36 45 36 112q0 65 -38 107q-36 40 -92 40q-57 0 -92 -40q-36 -40 -36 -107q0 -68 37 -113q36 -45 91 -45z" />
    <glyph glyph-name="yacute" unicode="&#xfd;" horiz-adv-x="532" 
d="M232 -178h-89l76 188l-184 452h91l138 -372l142 372h91zM250 515h-68l76 139h92z" />
    <glyph glyph-name="thorn" unicode="&#xfe;" horiz-adv-x="500" 
d="M158 -186h-98v815h98v-239q47 63 127 63q81 0 130 -63t49 -168q0 -104 -50 -168q-49 -63 -129 -63q-78 0 -127 63v-240zM258 59q49 0 78 44q28 44 28 118q0 77 -28 120t-78 43q-100 0 -100 -163q0 -162 100 -162z" />
    <glyph glyph-name="Lslash" unicode="&#x141;" horiz-adv-x="491" 
d="M469 0h-407v233l-51 -21v57l51 21v360h99v-326l186 78v-57l-186 -78v-194h308v-73z" />
    <glyph glyph-name="lslash" unicode="&#x142;" horiz-adv-x="216" 
d="M154 0h-92v247l-62 -27v57l62 27v346h92v-313l64 28v-56l-64 -29v-280z" />
    <glyph glyph-name="Scaron" unicode="&#x160;" horiz-adv-x="541" 
d="M82 116q75 -51 170 -51q145 0 145 99q0 52 -45 85q-27 20 -108 52q-91 36 -132 73q-52 48 -52 119q0 77 57 122q58 45 161 45q116 0 197 -60l-38 -61q-69 46 -155 46q-127 0 -127 -91q0 -43 50 -77q29 -19 119 -56q82 -35 117 -67q54 -50 54 -128q0 -85 -68 -132
q-63 -44 -168 -44q-131 0 -213 62zM305 703h-70l-97 159h74l58 -104l58 104h74z" />
    <glyph glyph-name="scaron" unicode="&#x161;" horiz-adv-x="449" 
d="M275 265q126 -50 126 -140q0 -135 -196 -135q-93 0 -159 51l28 54q57 -41 131 -41q107 0 107 70q0 33 -40 56q-14 9 -86 37q-127 50 -127 136q0 58 46 89q44 30 120 30q97 0 159 -44l-30 -54q-51 34 -119 34q-86 0 -86 -58q0 -28 39 -49zM259 515h-70l-97 159h74l58 -104
l58 104h74z" />
    <glyph glyph-name="Zcaron" unicode="&#x17d;" horiz-adv-x="561" 
d="M518 0h-475v65l353 511h-330v74h443v-67l-352 -510h361v-73zM315 703h-70l-97 159h74l58 -104l58 104h74z" />
    <glyph glyph-name="zcaron" unicode="&#x17e;" horiz-adv-x="455" 
d="M412 0h-369v54l257 351h-241v57h344v-49l-260 -356h269v-57zM262 515h-70l-97 159h74l58 -104l58 104h74z" />
    <glyph glyph-name="uni0E00" unicode="&#xe00;" 
 />
    <glyph glyph-name="uni0E01" unicode="&#xe01;" horiz-adv-x="575" 
d="M518 0h-92v365q0 121 -142 121q-115 0 -148 -80l81 -45v-30q-57 -18 -57 -86v-245h-92v248q0 78 58 100l-83 50q16 69 85 111q66 41 155 41q107 0 170 -46q65 -48 65 -136v-368z" />
    <glyph glyph-name="uni0E02" unicode="&#xe02;" horiz-adv-x="529" 
d="M472 135q0 -70 -61 -109q-57 -36 -149 -36q-209 0 -209 170v107q0 47 50 94q49 46 49 70q0 26 -12 35q-12 10 -43 10h-52v64h87q108 0 108 -91q0 -51 -47 -96q-48 -46 -48 -87v-125q0 -87 118 -87q117 0 117 87v399h92v-405z" />
    <glyph glyph-name="uni0E03" unicode="&#xe03;" horiz-adv-x="538" 
d="M481 135q0 -70 -61 -109q-57 -36 -149 -36q-91 0 -148 36q-61 39 -61 109v130q0 56 56 102q55 46 55 77q0 28 -18 36l-57 -51h-51v111h63v-46l56 46q89 0 89 -84q0 -49 -50 -100q-51 -52 -51 -100v-115q0 -87 118 -87q117 0 117 87v399h92v-405z" />
    <glyph glyph-name="uni0E04" unicode="&#xe04;" horiz-adv-x="565" 
d="M508 0h-92v384q0 102 -133 102q-63 0 -98 -27q-36 -27 -36 -75v-137q28 39 85 39h74v-68h-82q-54 0 -77 -48v-170h-92v383q0 76 61 121q61 46 165 46t165 -46q60 -45 60 -121v-383z" />
    <glyph glyph-name="uni0E05" unicode="&#xe05;" horiz-adv-x="565" 
d="M508 0h-92v378q0 83 -58 102l-66 -67h-18l-67 67q-58 -19 -58 -102v-131q28 39 85 39h74v-68h-82q-54 0 -77 -48v-170h-92v354q0 192 158 196l65 -66h5l65 66q158 -4 158 -196v-354z" />
    <glyph glyph-name="uni0E06" unicode="&#xe06;" horiz-adv-x="571" 
d="M514 192q0 -105 -35 -152q-39 -50 -131 -50q-108 0 -194 93l-7 -83h-85v265q0 56 56 102q55 46 55 77q0 28 -18 36l-57 -51h-51v111h63v-46l56 46q89 0 89 -84q0 -46 -50 -100q-51 -54 -51 -114v-79q85 -104 164 -104q104 0 104 113v368h92v-348z" />
    <glyph glyph-name="uni0E07" unicode="&#xe07;" horiz-adv-x="544" 
d="M263 65q70 0 109 65q37 60 37 155q0 88 -33 141q-37 60 -108 60q-28 0 -58 -10l-12 62q38 12 79 12q112 0 171 -75q54 -70 54 -190q0 -121 -58 -201q-61 -84 -165 -84h-118l-146 409h89l123 -344h36z" />
    <glyph glyph-name="uni0E08" unicode="&#xe08;" horiz-adv-x="536" 
d="M230 65q171 0 171 218q0 203 -179 203q-97 0 -166 -45l-28 59q91 50 199 50q267 0 267 -267q0 -127 -65 -204q-66 -79 -177 -79h-92l-41 234h-63v64h132z" />
    <glyph glyph-name="uni0E09" unicode="&#xe09;" horiz-adv-x="560" 
d="M503 0h-84l-7 83q-88 -93 -179 -93q-165 0 -165 180v128h92v-123q0 -116 103 -116q71 0 148 104v193q0 69 -39 100q-38 30 -121 30q-99 0 -181 -45l-23 56q92 53 216 53q240 0 240 -184v-366z" />
    <glyph glyph-name="uni0E0A" unicode="&#xe0a;" horiz-adv-x="532" 
d="M472 135q0 -70 -61 -109q-57 -36 -149 -36q-209 0 -209 170v107q0 47 50 94q49 46 49 70q0 26 -12 35q-12 10 -43 10h-52v64h87q108 0 108 -91q0 -51 -47 -96q-48 -46 -48 -87v-125q0 -87 118 -87q117 0 117 87v183q0 66 -71 73v32l93 111h99l-107 -124q78 -16 78 -92
v-189z" />
    <glyph glyph-name="uni0E0B" unicode="&#xe0b;" horiz-adv-x="541" 
d="M481 135q0 -70 -61 -109q-57 -36 -149 -36q-91 0 -148 36q-61 39 -61 109v130q0 56 56 102q55 46 55 77q0 28 -18 36l-57 -51h-51v111h63v-46l56 46q89 0 89 -84q0 -49 -50 -100q-51 -52 -51 -100v-115q0 -87 118 -87q117 0 117 87v183q0 66 -71 73v32l93 111h99
l-107 -124q78 -16 78 -92v-189z" />
    <glyph glyph-name="uni0E0C" unicode="&#xe0c;" horiz-adv-x="880" 
d="M823 170q0 -180 -159 -180q-101 0 -164 90l-6 -80h-84v365q0 121 -136 121q-105 0 -138 -80l81 -45v-30q-56 -17 -56 -86v-130q0 -50 48 -50h47v-65h-86q-102 0 -102 100v148q0 78 58 100l-83 50q16 70 81 111q63 41 151 41q106 0 165 -46q61 -47 61 -136v-207
q57 -102 134 -102q95 0 95 116v365h93v-370z" />
    <glyph glyph-name="uni0E0D" unicode="&#xe0d;" horiz-adv-x="880" 
d="M823 217q0 -96 -56 -139q53 -22 53 -78q0 -60 -55 -92q-52 -30 -142 -30q-115 0 -185 41l31 54q47 -32 143 -32q120 0 120 65q0 37 -36 45q-42 -17 -91 -17q-195 0 -195 183v148q0 121 -136 121q-105 0 -138 -80l81 -45v-30q-56 -17 -56 -86v-130q0 -50 48 -50h47v-65
h-86q-102 0 -102 100v148q0 78 58 100l-83 50q16 70 81 111q63 41 151 41q106 0 165 -46q61 -47 61 -136v-149q0 -121 115 -121q114 0 114 121v321h93v-323z" />
    <glyph glyph-name="uni0E0E" unicode="&#xe0e;" horiz-adv-x="585" 
d="M528 -180h-90q-77 63 -137 63q-63 0 -72 -64h-74q17 124 133 124q72 0 148 -53v475q0 121 -142 121q-115 0 -148 -80l84 -45v-30q-44 -14 -44 -74v-161q0 -96 -92 -96h-70v65h29q24 0 33 10q8 10 8 38v139q0 75 45 96l-86 50q16 69 85 111q66 41 156 41q107 0 169 -46
q65 -48 65 -136v-548z" />
    <glyph glyph-name="uni0E0F" unicode="&#xe0f;" horiz-adv-x="585" 
d="M528 -180h-87l-116 50q-33 -53 -100 -53q-59 0 -105 32l26 54q28 -28 74 -28q64 0 82 71l134 -57v476q0 121 -142 121q-115 0 -148 -80l84 -45v-30q-44 -14 -44 -74v-161q0 -96 -92 -96h-70v65h29q24 0 33 10q8 10 8 38v139q0 75 45 96l-86 50q16 69 85 111q66 41 155 41
q107 0 170 -46q65 -49 65 -136v-548z" />
    <glyph glyph-name="uni0E10" unicode="&#xe10;" horiz-adv-x="542" 
d="M378 -135q26 17 26 52q0 20 -10 39h68q10 -23 10 -47q0 -87 -94 -109l-118 53q-30 -62 -101 -62q-60 0 -99 44l32 51q31 -31 73 -31q62 0 84 72zM230 65q171 0 171 218q0 203 -179 203q-97 0 -166 -45l-28 59q89 50 204 50q38 0 71 -6l197 53v-73l-109 -17
q103 -55 103 -224q0 -127 -65 -204q-66 -79 -177 -79h-92l-41 234h-63v64h132z" />
    <glyph glyph-name="uni0E11" unicode="&#xe11;" horiz-adv-x="573" 
d="M516 0h-92v387q0 53 -13 74t-47 21q-67 0 -140 -110q-68 -102 -68 -171v-201h-92v203q0 55 56 139t56 105q0 25 -19 33l-57 -51h-51v111h64v-46l55 46q71 0 78 -61q68 71 144 71q126 0 126 -162v-388z" />
    <glyph glyph-name="uni0E12" unicode="&#xe12;" horiz-adv-x="886" 
d="M829 170q0 -180 -159 -180q-101 0 -164 90l-6 -80h-84v378q0 83 -58 102l-66 -67h-18l-67 67q-59 -19 -59 -102v-300q102 54 128 159h-57v64h132v-52q-14 -78 -68 -145q-56 -70 -138 -104h-88v354q0 192 158 196l65 -66h5l65 66q158 -4 158 -196v-193q55 -102 134 -102
q95 0 95 116v365h92v-370z" />
    <glyph glyph-name="uni0E13" unicode="&#xe13;" horiz-adv-x="885" 
d="M828 0h-85l-7 80q-61 -90 -167 -90q-159 0 -159 180v195q0 121 -136 121q-105 0 -138 -80l81 -45v-30q-56 -17 -56 -86v-130q0 -50 48 -50h47v-65h-86q-102 0 -102 100v148q0 78 58 100l-83 50q16 70 81 111q63 41 151 41q106 0 165 -46q61 -47 61 -136v-193
q0 -116 98 -116q82 0 136 104v377h93v-540z" />
    <glyph glyph-name="uni0E14" unicode="&#xe14;" horiz-adv-x="580" 
d="M523 0h-92v382q0 50 -38 77q-37 27 -103 27q-63 0 -102 -28q-40 -28 -40 -76v-304q102 54 128 159h-57v64h132v-52q-14 -78 -68 -145q-56 -70 -138 -104h-88v381q0 75 64 122t169 47q104 0 169 -47q64 -46 64 -122v-381z" />
    <glyph glyph-name="uni0E15" unicode="&#xe15;" horiz-adv-x="580" 
d="M523 0h-92v378q0 82 -61 102l-71 -67h-18l-73 67q-60 -20 -60 -102v-300q102 53 128 159h-57v64h132v-52q-14 -78 -68 -145q-56 -70 -138 -104h-88v384q0 75 44 120q44 44 117 46l69 -68h5l68 68q74 -2 118 -46q45 -45 45 -120v-384z" />
    <glyph glyph-name="uni0E16" unicode="&#xe16;" horiz-adv-x="575" 
d="M518 0h-92v365q0 121 -142 121q-115 0 -148 -80l81 -45v-30q-56 -17 -56 -86v-130q0 -50 48 -50h47v-65h-86q-102 0 -102 100v148q0 78 58 100l-83 50q16 69 85 111q66 41 155 41q107 0 170 -46q65 -48 65 -136v-368z" />
    <glyph glyph-name="uni0E17" unicode="&#xe17;" horiz-adv-x="571" 
d="M514 0h-92v368q0 113 -104 113q-79 0 -164 -104v-377h-92v540h86l6 -83q88 93 194 93q166 0 166 -177v-373z" />
    <glyph glyph-name="uni0E18" unicode="&#xe18;" horiz-adv-x="541" 
d="M498 131q0 -70 -66 -107q-60 -34 -161 -34q-102 0 -160 39q-59 39 -59 108v98h92v-84q0 -97 132 -97q49 0 87 21q43 24 43 61v61q0 41 -41 61q-28 13 -126 33q-101 21 -142 45q-54 33 -54 93q0 121 227 121q144 0 223 -52l-30 -59q-71 47 -191 47q-142 0 -142 -58
q0 -44 170 -73q107 -19 151 -52q47 -36 47 -106v-66z" />
    <glyph glyph-name="uni0E19" unicode="&#xe19;" horiz-adv-x="566" 
d="M509 0h-85l-6 83q-88 -93 -191 -93q-170 0 -170 180v370h92v-365q0 -116 108 -116q75 0 160 104v377h92v-540z" />
    <glyph glyph-name="uni0E1A" unicode="&#xe1a;" horiz-adv-x="570" 
d="M513 162q0 -81 -61 -127q-61 -45 -167 -45t-167 45q-61 46 -61 127v378h92v-377q0 -109 136 -109q135 0 135 109v377h93v-378z" />
    <glyph glyph-name="uni0E1B" unicode="&#xe1b;" horiz-adv-x="570" 
d="M513 162q0 -81 -61 -127q-61 -45 -167 -45t-167 45q-61 46 -61 127v378h92v-377q0 -109 136 -109q135 0 135 109v549h93v-550z" />
    <glyph glyph-name="uni0E1C" unicode="&#xe1c;" horiz-adv-x="637" 
d="M524 0h-91l-115 313l-115 -313h-90l-70 540h168v-58h-75l44 -380l102 278h73l102 -278l47 438h90z" />
    <glyph glyph-name="uni0E1D" unicode="&#xe1d;" horiz-adv-x="637" 
d="M524 0h-91l-115 313l-115 -313h-90l-70 540h168v-58h-75l44 -380l102 278h73l102 -278l69 610h88z" />
    <glyph glyph-name="uni0E1E" unicode="&#xe1e;" horiz-adv-x="680" 
d="M551 0h-92l-119 416l-120 -416h-91l-84 540h88l61 -422l109 399h73l110 -399l61 422h88z" />
    <glyph glyph-name="uni0E1F" unicode="&#xe1f;" horiz-adv-x="680" 
d="M551 0h-92l-119 416l-120 -416h-91l-84 540h88l61 -422l109 399h73l110 -399l79 594h87z" />
    <glyph glyph-name="uni0E20" unicode="&#xe20;" horiz-adv-x="585" 
d="M528 0h-92v365q0 121 -142 121q-115 0 -148 -80l84 -45v-30q-44 -14 -44 -74v-161q0 -96 -92 -96h-70v65h29q24 0 33 10q8 10 8 38v139q0 75 45 96l-86 50q16 69 85 111q66 41 156 41q107 0 169 -46q65 -48 65 -136v-368z" />
    <glyph glyph-name="uni0E21" unicode="&#xe21;" horiz-adv-x="571" 
d="M514 167q0 -177 -166 -177q-106 0 -194 93l-6 -83h-86v540h92v-377q85 -104 164 -104q104 0 104 113v368h92v-373z" />
    <glyph glyph-name="uni0E22" unicode="&#xe22;" horiz-adv-x="578" 
d="M521 158q0 -78 -64 -123q-62 -45 -169 -45q-237 0 -237 165q0 105 90 132v2q-85 32 -85 127q0 62 47 99q45 35 116 35q49 0 81 -11l-8 -59q-22 8 -59 8q-39 0 -61 -22q-23 -23 -23 -59q0 -88 90 -88h59v-59h-50q-105 0 -105 -102q0 -104 140 -104q66 0 105 26
q41 28 41 79v381h92v-382z" />
    <glyph glyph-name="uni0E23" unicode="&#xe23;" horiz-adv-x="498" 
d="M414 446q-67 40 -156 40q-53 0 -83 -21q-28 -19 -28 -50q0 -52 130 -94q91 -30 130 -64q48 -42 48 -112q0 -69 -56 -112q-58 -43 -155 -43q-117 0 -204 60l29 55q70 -51 169 -51q55 0 90 25q34 25 34 63q0 40 -33 64q-29 21 -106 46q-81 26 -116 53q-50 40 -50 107
q0 63 52 101q53 37 144 37q118 0 189 -50z" />
    <glyph glyph-name="uni0E24" unicode="&#xe24;" horiz-adv-x="575" 
d="M518 -182h-92v547q0 121 -142 121q-115 0 -148 -80l81 -45v-30q-56 -17 -56 -86v-130q0 -50 48 -50h47v-65h-86q-102 0 -102 100v148q0 78 58 100l-83 50q16 69 85 111q66 41 155 41q107 0 170 -46q65 -48 65 -136v-550z" />
    <glyph glyph-name="uni0E25" unicode="&#xe25;" horiz-adv-x="552" 
d="M495 0h-92v258q-145 0 -204 -24q-64 -25 -64 -90q0 -91 95 -91q23 0 46 7l14 -56q-34 -14 -81 -14q-73 0 -118 37q-48 40 -48 110q0 102 89 145q84 41 271 41q0 92 -22 123q-29 40 -119 40q-95 0 -163 -49l-29 59q85 54 202 54q122 0 173 -53q50 -51 50 -167v-330z" />
    <glyph glyph-name="uni0E26" unicode="&#xe26;" horiz-adv-x="596" 
d="M539 -182h-92v547q0 121 -142 121q-115 0 -148 -80l84 -45v-30q-44 -14 -44 -74v-161q0 -96 -92 -96h-70v65h29q23 0 32 10t9 38v139q0 75 45 96l-86 50q16 69 85 111q66 41 155 41q107 0 170 -46q65 -48 65 -136v-550z" />
    <glyph glyph-name="uni0E27" unicode="&#xe27;" horiz-adv-x="503" 
d="M77 97q60 -43 134 -43q162 0 162 216t-166 216q-76 0 -137 -45l-29 59q78 50 174 50q246 0 246 -280t-241 -280q-94 0 -172 48z" />
    <glyph glyph-name="uni0E28" unicode="&#xe28;" horiz-adv-x="565" 
d="M508 0h-92v384q0 102 -133 102q-63 0 -98 -27q-36 -27 -36 -75v-137q28 39 85 39h74v-68h-82q-54 0 -77 -48v-170h-92v383q0 76 61 121q61 46 165 46q25 0 52 -5l189 52v-73l-102 -15q86 -37 86 -132v-377z" />
    <glyph glyph-name="uni0E29" unicode="&#xe29;" horiz-adv-x="586" 
d="M513 162q0 -81 -61 -127q-61 -45 -167 -45t-167 45q-61 46 -61 127v378h92v-377q0 -109 136 -109q135 0 135 109v112h-135v68h135v197h93v-197h48v-68h-48v-113z" />
    <glyph glyph-name="uni0E2A" unicode="&#xe2a;" horiz-adv-x="552" 
d="M495 0h-92v258q-145 0 -204 -24q-64 -25 -64 -90q0 -91 95 -91q23 0 46 7l14 -56q-34 -14 -81 -14q-73 0 -118 37q-48 40 -48 110q0 102 89 145q84 41 271 41q0 92 -22 123q-29 40 -119 40q-95 0 -163 -49l-29 59q85 54 202 54q19 0 47 -2l186 49v-69l-91 -13
q81 -36 81 -185v-330z" />
    <glyph glyph-name="uni0E2B" unicode="&#xe2b;" horiz-adv-x="569" 
d="M512 0h-92v169q0 102 -105 102h-161v-271h-92v540h92v-200h161q105 0 105 115v85h92v-93q0 -116 -92 -144q92 -17 92 -124v-179z" />
    <glyph glyph-name="uni0E2C" unicode="&#xe2c;" horiz-adv-x="680" 
d="M549 0h-91l-120 302l-120 -302h-91l-84 540h88l61 -450l114 288h63l115 -288l41 334q7 61 -77 69v36l100 102h94l-107 -112q84 -18 72 -99z" />
    <glyph glyph-name="uni0E2D" unicode="&#xe2d;" horiz-adv-x="548" 
d="M146 72q39 -18 100 -18q166 0 166 222q0 210 -176 210q-93 0 -164 -42l-29 58q82 48 198 48q263 0 263 -274q0 -286 -259 -286q-110 0 -192 35v271h185v-69h-92v-155z" />
    <glyph glyph-name="uni0E2E" unicode="&#xe2e;" horiz-adv-x="548" 
d="M146 72q39 -18 100 -18q166 0 166 222q0 210 -176 210q-93 0 -164 -42l-29 58q82 48 198 48q30 0 62 -5l190 52v-73l-98 -15q109 -53 109 -233q0 -286 -259 -286q-110 0 -192 35v271h185v-69h-92v-155z" />
    <glyph glyph-name="uni0E2F" unicode="&#xe2f;" horiz-adv-x="496" 
d="M439 0h-92v352q-53 -65 -143 -65q-68 0 -108 37q-43 39 -43 112v108h92v-107q0 -87 85 -87q75 0 117 82v112h92v-544z" />
    <glyph glyph-name="uni0E30" unicode="&#xe30;" horiz-adv-x="308" 
d="M259 361h-150q-66 0 -66 68v51h80v-31q0 -24 24 -24h112v-64zM259 55h-150q-66 0 -66 67v51h80v-31q0 -23 24 -23h112v-64z" />
    <glyph glyph-name="uni0E31" unicode="&#xe31;" 
d="M45 627h-301q-67 0 -67 68v58h85v-36q0 -26 25 -26h258v-64z" />
    <glyph glyph-name="uni0E32" unicode="&#xe32;" horiz-adv-x="413" 
d="M356 0h-93v383q0 103 -98 103q-70 0 -119 -41l-29 59q64 46 164 46q175 0 175 -169v-381z" />
    <glyph glyph-name="uni0E33" unicode="&#xe33;" horiz-adv-x="413" 
d="M356 0h-93v383q0 103 -98 103q-70 0 -119 -41l-29 59q64 46 164 46q175 0 175 -169v-381zM-44 690q0 -40 -29 -65q-27 -22 -70 -22q-42 0 -69 22q-29 25 -29 65t29 64q27 23 69 23t70 -23q29 -24 29 -64zM-143 649q43 0 43 41t-43 41q-42 0 -42 -41t42 -41z" />
    <glyph glyph-name="uni0E34" unicode="&#xe34;" 
d="M-57 627h-414v64h414v-64z" />
    <glyph glyph-name="uni0E35" unicode="&#xe35;" 
d="M-57 627h-414v64h329v70h85v-134z" />
    <glyph glyph-name="uni0E36" unicode="&#xe36;" 
d="M-185 691q-2 8 -2 14q0 29 20 49t51 20q32 0 54 -21t22 -53t-22 -52q-21 -21 -55 -21h-354v64h286zM-116 669q31 0 31 31q0 32 -31 32t-31 -32q0 -31 31 -31z" />
    <glyph glyph-name="uni0E37" unicode="&#xe37;" 
d="M-57 627h-414v64h229v70h67v-70h50v70h68v-134z" />
    <glyph glyph-name="uni0E38" unicode="&#xe38;" 
d="M-57 -268h-90v95q0 32 -34 32h-36v64h75q51 0 68 -19t17 -70v-102z" />
    <glyph glyph-name="uni0E39" unicode="&#xe39;" 
d="M-57 -182q0 -92 -126 -92q-55 0 -90 21q-36 22 -36 61v37q0 16 -18 16h-32v62h73q52 0 52 -40v-60q0 -41 49 -41t49 41v100h79v-105z" />
    <glyph glyph-name="uni0E3A" unicode="&#xe3a;" 
d="M-50 -122q0 -55 -54 -55t-54 55t54 55t54 -55z" />
    <glyph glyph-name="uni0E3F" unicode="&#xe3f;" horiz-adv-x="568" 
d="M290 -77h-82v77h-146v650h146v78h82v-78q210 -5 210 -161q0 -119 -109 -154v-2q130 -24 130 -152q0 -98 -63 -141q-54 -38 -168 -40v-77zM290 72q68 0 100 24q34 26 34 87q0 57 -35 84q-35 26 -115 26h-113v-221h129zM272 364q132 0 132 112q0 102 -122 102h-121v-214
h111z" />
    <glyph glyph-name="uni0E40" unicode="&#xe40;" horiz-adv-x="257" 
d="M226 0h-72q-95 0 -95 98v442h92v-427q0 -48 42 -48h33v-65z" />
    <glyph glyph-name="uni0E41" unicode="&#xe41;" horiz-adv-x="479" 
d="M226 0h-72q-95 0 -95 98v442h92v-427q0 -48 42 -48h33v-65zM448 0h-72q-95 0 -95 98v442h92v-427q0 -48 42 -48h33v-65z" />
    <glyph glyph-name="uni0E42" unicode="&#xe42;" horiz-adv-x="287" 
d="M256 0h-73q-95 0 -95 98v487q0 109 -111 143q4 63 60 98q51 32 124 32q87 0 148 -46l-28 -56q-52 38 -118 38q-81 0 -104 -49q122 -28 122 -155v-477q0 -48 41 -48h34v-65z" />
    <glyph glyph-name="uni0E43" unicode="&#xe43;" horiz-adv-x="310" 
d="M279 0h-73q-94 0 -94 98v426q0 50 52 113t52 97q0 60 -77 60q-84 0 -87 -75h-79q3 67 52 104q46 35 118 35q76 0 118 -31q43 -31 43 -87q0 -44 -50 -108t-50 -106v-413q0 -48 42 -48h33v-65z" />
    <glyph glyph-name="uni0E44" unicode="&#xe44;" horiz-adv-x="290" 
d="M259 0h-73q-94 0 -94 98v512q0 124 103 176h-218v65h299v-76q-92 -38 -92 -165v-497q0 -48 42 -48h33v-65z" />
    <glyph glyph-name="uni0E45" unicode="&#xe45;" horiz-adv-x="413" 
d="M356 -182h-93v565q0 103 -98 103q-70 0 -119 -41l-29 59q66 46 164 46q175 0 175 -169v-563z" />
    <glyph glyph-name="uni0E46" unicode="&#xe46;" horiz-adv-x="539" 
d="M468 -146h-93v512q0 94 -49 119l-72 -69l-82 70q-50 -26 -50 -96q0 -85 70 -85q23 0 41 9v-54q-26 -14 -68 -14q-57 0 -89 38q-33 38 -33 102q0 66 39 112q37 44 99 55l73 -60l68 60q81 -10 114 -57q32 -45 32 -139v-503z" />
    <glyph glyph-name="uni0E47" unicode="&#xe47;" 
d="M-95 619h-67l-85 43l-90 -45q-50 0 -82 27q-32 28 -32 73t31 72q32 27 89 27h257v-55h-251q-59 0 -59 -44q0 -42 40 -48l96 47l91 -45h62v-52z" />
    <glyph glyph-name="uni0E48" unicode="&#xe48;" 
d="M-58 815h-82v116h82v-116z" />
    <glyph glyph-name="uni0E49" unicode="&#xe49;" 
d="M35 815h-251v50q0 21 -22 21h-30v50h65q55 0 55 -51v-20h183v-50z" />
    <glyph glyph-name="uni0E4A" unicode="&#xe4a;" 
d="M57 815h-155v29q0 30 -19 42l-64 -59l-65 59q-19 -12 -19 -42v-29h-63v43q0 37 28 59q26 19 66 20l53 -53l54 53q81 -3 89 -74h95v-48z" />
    <glyph glyph-name="uni0E4B" unicode="&#xe4b;" 
d="M1 865h-64v-50h-73v50h-64v41h64v49h73v-49h64v-41z" />
    <glyph glyph-name="uni0E4C" unicode="&#xe4c;" 
d="M-24 817h-89q-33 0 -33 -29v-26h-77v39q0 66 87 66h112v-50z" />
    <glyph glyph-name="uni0E4D" unicode="&#xe4d;" 
d="M-44 690q0 -40 -29 -65q-27 -22 -70 -22q-42 0 -69 22q-29 25 -29 65t29 64q27 23 69 23t70 -23q29 -24 29 -64zM-143 649q43 0 43 41t-43 41q-42 0 -42 -41t42 -41z" />
    <glyph glyph-name="uni0E4E" unicode="&#xe4e;" 
d="M-173 627h-86q-79 0 -79 64q0 57 74 67q-28 19 -28 48q0 26 22 44q22 19 57 19h114v-39h-73q-42 0 -42 -28q0 -29 32 -29h22v-37h-43q-60 0 -60 -41q0 -30 41 -30h49v-38z" />
    <glyph glyph-name="uni0E4F" unicode="&#xe4f;" horiz-adv-x="588" 
d="M526 218q0 -100 -66 -163q-64 -62 -162 -62t-162 62q-66 63 -66 163t66 163q64 62 162 62t162 -62q66 -63 66 -163zM488 218q0 83 -54 136q-54 52 -136 52q-81 0 -135 -52q-55 -53 -55 -136t55 -136q54 -52 135 -52q82 0 136 52q54 53 54 136zM424 218q0 -56 -36 -91
q-35 -34 -90 -34t-90 34q-36 35 -36 91t36 91q35 34 90 34t90 -34q36 -35 36 -91zM389 218q0 41 -25 65t-66 24q-40 0 -65 -24t-25 -65t25 -65t65 -24q41 0 66 24t25 65z" />
    <glyph glyph-name="uni0E50" unicode="&#xe50;" horiz-adv-x="596" 
d="M298 -10q-117 0 -186 70q-64 65 -64 168q0 104 64 170q67 70 186 70q118 0 186 -70q64 -66 64 -170q0 -103 -63 -168q-68 -70 -187 -70zM298 56q80 0 124 50q41 46 41 122q0 74 -42 121q-44 51 -123 51q-78 0 -123 -51q-41 -47 -41 -121q0 -76 40 -122q44 -50 124 -50z
" />
    <glyph glyph-name="uni0E51" unicode="&#xe51;" horiz-adv-x="596" 
d="M343 135q-46 -22 -99 -22q-91 0 -144 47q-52 46 -52 121q0 89 68 140q67 51 182 51q117 0 184 -61q68 -62 68 -171q0 -128 -80 -204q-83 -78 -230 -78q-69 0 -102 9v63q43 -8 106 -8q106 0 165 59q57 58 57 159q0 162 -173 162q-75 0 -118 -33q-42 -32 -42 -88
q0 -47 34 -75q34 -30 94 -30q35 0 64 10z" />
    <glyph glyph-name="uni0E52" unicode="&#xe52;" horiz-adv-x="616" 
d="M570 0h-379q-135 0 -135 121v366q0 48 -15 79l79 9q18 -40 18 -87v-351q0 -71 81 -71h269v331h-130q-74 0 -74 -83q0 -76 77 -76q24 0 56 12l2 -59q-39 -14 -78 -14q-60 0 -94 34q-36 36 -36 102q0 149 135 149h224v-462z" />
    <glyph glyph-name="uni0E53" unicode="&#xe53;" horiz-adv-x="609" 
d="M547 0h-81v403l-134 -83l-107 81q-46 -10 -72 -57q-25 -45 -25 -110q0 -83 37 -133q38 -52 109 -52q26 0 55 12l13 -53q-32 -18 -95 -18q-98 0 -151 67q-50 64 -50 177q0 101 49 166t126 69l113 -79l126 72h87v-462z" />
    <glyph glyph-name="uni0E54" unicode="&#xe54;" horiz-adv-x="600" 
d="M290 62q50 -2 77 -2q-86 45 -86 146q0 80 94 80h69v-49h-49q-41 0 -41 -42q0 -66 53 -103q43 -32 85 -32h53v-60h-261q-122 0 -186 61q-63 58 -63 165q0 111 76 174q75 62 206 62h138q41 0 41 26v82h68v-109q0 -64 -77 -64h-171q-96 0 -148 -46q-51 -45 -51 -122
q0 -161 173 -167z" />
    <glyph glyph-name="uni0E55" unicode="&#xe55;" horiz-adv-x="600" 
d="M545 0h-261q-122 0 -186 61q-63 58 -63 165q0 89 51 150q52 62 144 79q-17 17 -17 48q0 73 80 73t80 -73q0 -20 -13 -41h104q32 0 32 26v82h68v-109q0 -64 -77 -64h-158q-103 0 -158 -44q-54 -44 -54 -124q0 -161 173 -167q50 -2 77 -2q-86 45 -86 146q0 80 94 80h69v-49
h-49q-41 0 -41 -42q0 -66 53 -103q43 -32 85 -32h53v-60zM293 471q36 0 36 35q0 34 -36 34t-36 -34q0 -35 36 -35z" />
    <glyph glyph-name="uni0E56" unicode="&#xe56;" horiz-adv-x="587" 
d="M150 179q7 -57 49 -91q42 -35 105 -35q75 0 121 51q45 49 45 125q0 75 -42 122q-45 50 -126 50q-114 0 -172 -73h-81v159q0 45 -16 79l69 9q19 -39 17 -87v-89q66 73 196 73q109 0 174 -67q63 -66 63 -176t-65 -173q-66 -66 -184 -66q-106 0 -169 51q-63 50 -71 138h87z
" />
    <glyph glyph-name="uni0E57" unicode="&#xe57;" horiz-adv-x="758" 
d="M708 189q0 -45 -2 -66q-14 -123 -226 -123h-48v399l-111 -79l-104 81q-38 -10 -64 -57q-25 -45 -25 -110q0 -83 37 -133q38 -52 109 -52q26 0 55 12l13 -53q-32 -18 -95 -18q-98 0 -151 67q-50 64 -50 177q0 101 49 166t126 69l101 -91l115 84h77v-398q45 2 78 21
q35 19 35 48v373q0 33 24 70l75 -11q-18 -33 -18 -75v-301z" />
    <glyph glyph-name="uni0E58" unicode="&#xe58;" horiz-adv-x="612" 
d="M430 0l-128 125l-92 -125h-39q-68 15 -105 86q-31 61 -31 142q0 234 265 234h183q24 0 24 25v83h67v-109q0 -64 -67 -64h-193q-197 0 -197 -168q0 -118 70 -151l100 120h26l140 -138q38 50 38 127q0 65 -42 77l52 16q51 -14 61 -72q4 -23 1 -41q-5 -78 -59 -167h-74z" />
    <glyph glyph-name="uni0E59" unicode="&#xe59;" horiz-adv-x="611" 
d="M556 0h-82l-150 394h-99q-43 0 -73 -54q-24 -42 -24 -103q0 -174 135 -183q25 -3 53 5l5 -60q-30 -9 -70 -9q-205 0 -205 245q0 105 49 166q48 61 130 61h154l39 -95h57q30 0 30 28v96q0 50 19 84l62 -8q-17 -31 -17 -64v-145q0 -47 -50 -47h-79z" />
    <glyph glyph-name="uni0E5B" unicode="&#xe5b;" horiz-adv-x="1203" 
d="M1183 203h-164q-45 0 -65 35l-35 62l-87 -173h-53l-81 156q-45 -124 -140 -197q-97 -76 -218 -76q-128 0 -210 69q-91 75 -91 210q0 107 73 180q74 74 185 74q108 0 172 -62q58 -57 65 -147h-63q-7 61 -45 101q-46 49 -129 49q-87 0 -141 -61q-50 -56 -50 -133
q0 -109 70 -168q64 -55 168 -55q114 0 204 85q84 79 118 203h56l84 -158l81 161h59l47 -77q16 -25 48 -25h142v-53z" />
    <glyph glyph-name="zerowidthnonjoiner" unicode="&#x200c;" 
 />
    <glyph glyph-name="zerowidthjoiner" unicode="&#x200d;" 
 />
    <glyph glyph-name="lefttorightmark" unicode="&#x200e;" 
 />
    <glyph glyph-name="righttoleftmark" unicode="&#x200f;" 
 />
    <glyph glyph-name="minute" unicode="&#x2032;" horiz-adv-x="270" 
d="M151 420h-52v101l8 85h77l-9 -83z" />
    <glyph glyph-name="second" unicode="&#x2033;" horiz-adv-x="334" 
d="M113 420h-51v101l8 85h76l-9 -83zM253 420h-51v101l8 85h77l-9 -83z" />
    <glyph glyph-name="uni2113" unicode="&#x2113;" horiz-adv-x="548" 
d="M449 30q-53 -40 -144 -40q-157 0 -157 127v104q-32 -10 -71 -17v53q34 5 71 17v225q0 77 37 121q35 41 91 41q64 0 97 -47q31 -44 31 -118q0 -177 -191 -257v-116q0 -78 102 -78q54 0 106 29zM213 296q130 71 130 200q0 113 -65 113t-65 -118v-195z" />
    <glyph glyph-name="estimated" unicode="&#x212e;" horiz-adv-x="750" 
d="M665 120q-93 -131 -283 -131q-173 0 -268 105q-84 93 -84 231q0 136 79 223q92 100 268 100t264 -93q79 -83 79 -232v-17h-580v-155q0 -59 87 -99q75 -35 156 -35q152 0 236 103h46zM613 336v165q0 53 -72 88q-67 32 -158 32q-93 0 -165 -34q-78 -36 -78 -88v-163h473z
" />
    <glyph glyph-name="minus" unicode="&#x2212;" horiz-adv-x="548" 
d="M474 228h-401v71h401v-71z" />
    <glyph glyph-name="dottedcircle" unicode="&#x25cc;" horiz-adv-x="553" 
d="M297 513q0 -21 -20 -21t-20 21t20 21t20 -21zM205 493q0 -21 -20 -21t-20 21t20 21t20 -21zM389 493q0 -21 -20 -21t-20 21t20 21t20 -21zM131 442q0 -21 -20 -21t-20 21t20 21t20 -21zM463 442q0 -21 -20 -21t-20 21t20 21t20 -21zM83 370q0 -21 -20 -21t-20 21t20 21
t20 -21zM511 370q0 -21 -20 -21t-20 21t20 21t20 -21zM65 282q0 -21 -20 -21t-20 21t20 21t20 -21zM529 282q0 -21 -20 -21t-20 21t20 21t20 -21zM297 51q0 -21 -20 -21t-20 21t20 21t20 -21zM205 71q0 -21 -20 -21t-20 21t20 21t20 -21zM389 71q0 -21 -20 -21t-20 21t20 21
t20 -21zM131 122q0 -21 -20 -21t-20 21t20 21t20 -21zM463 122q0 -21 -20 -21t-20 21t20 21t20 -21zM83 194q0 -21 -20 -21t-20 21t20 21t20 -21zM511 194q0 -21 -20 -21t-20 21t20 21t20 -21z" />
    <glyph glyph-name="uni0E10.alt1" unicode="&#xf700;" horiz-adv-x="542" 
d="M230 65q171 0 171 218q0 203 -179 203q-97 0 -166 -45l-28 59q89 50 204 50q38 0 71 -6l197 53v-73l-109 -17q103 -55 103 -224q0 -127 -65 -204q-66 -79 -177 -79h-92l-41 234h-63v64h132z" />
    <glyph glyph-name="uni0E34.alt1" unicode="&#xf701;" 
d="M-214 627h-374v64h374v-64z" />
    <glyph glyph-name="uni0E35.alt1" unicode="&#xf702;" 
d="M-214 627h-374v64h289v70h85v-134z" />
    <glyph glyph-name="uni0E36.alt1" unicode="&#xf703;" 
d="M-342 691q-2 8 -2 14q0 29 20 49t51 20q32 0 54 -21t22 -53t-22 -52q-21 -21 -55 -21h-314v64h246zM-273 669q31 0 31 31q0 32 -31 32t-31 -32q0 -31 31 -31z" />
    <glyph glyph-name="uni0E37.alt1" unicode="&#xf704;" 
d="M-214 627h-374v64h197v70h63v-70h46v70h68v-134z" />
    <glyph glyph-name="uni0E48.alt1" unicode="&#xf705;" 
d="M-236 627h-84v154h84v-154z" />
    <glyph glyph-name="uni0E49.alt1" unicode="&#xf706;" 
d="M-181 627h-260v45q0 20 -4 25q-5 6 -22 6h-40v62h84q54 0 54 -57v-25h188v-56z" />
    <glyph glyph-name="uni0E4A.alt1" unicode="&#xf707;" 
d="M-114 627h-158v30q0 32 -21 42l-76 -68l-78 69q-22 -10 -22 -43v-30h-69v47q0 39 29 63q26 21 68 23l72 -67l71 67q90 -3 91 -79h93v-54z" />
    <glyph glyph-name="uni0E4B.alt1" unicode="&#xf708;" 
d="M-199 686h-71v-59h-74v59h-71v50h71v58h74v-58h71v-50z" />
    <glyph glyph-name="uni0E4C.alt1" unicode="&#xf709;" 
d="M-190 685h-100q-32 0 -32 -29v-29h-79v48q0 70 76 70h135v-60z" />
    <glyph glyph-name="uni0E48.alt2" unicode="&#xf70a;" 
d="M-54 627h-84v154h84v-154z" />
    <glyph glyph-name="uni0E49.alt2" unicode="&#xf70b;" 
d="M1 627h-285v51q0 23 -22 23h-44v64h79q59 0 59 -60v-20h213v-58z" />
    <glyph glyph-name="uni0E4A.alt2" unicode="&#xf70c;" 
d="M10 627h-187v34q0 29 -19 38l-81 -71l-81 72q-20 -9 -20 -40v-33h-72v47q0 39 29 63q27 21 69 23l76 -69l75 69q90 -4 91 -76h120v-57z" />
    <glyph glyph-name="uni0E4B.alt2" unicode="&#xf70d;" 
d="M-47 686h-70v-59h-75v59h-71v50h71v58h75v-58h70v-50z" />
    <glyph glyph-name="uni0E4C.alt2" unicode="&#xf70e;" 
d="M-2 685h-142q-32 0 -32 -29v-29h-79v48q0 70 76 70h177v-60z" />
    <glyph glyph-name="uni0E0D.alt1" unicode="&#xf70f;" horiz-adv-x="875" 
d="M823 172q0 -182 -207 -182q-206 0 -206 182v193q0 121 -136 121q-105 0 -138 -80l81 -45v-30q-56 -17 -56 -86v-130q0 -50 48 -50h47v-65h-86q-102 0 -102 100v148q0 78 58 100l-83 50q16 70 81 111q63 41 151 41q106 0 165 -46q61 -47 61 -136v-194q0 -120 115 -120
q114 0 114 120v366h93v-368z" />
    <glyph glyph-name="uni0E31.alt1" unicode="&#xf710;" 
d="M-25 627h-374q-67 0 -67 68v58h85v-36q0 -26 25 -26h331v-64z" />
    <glyph glyph-name="uni0E4D.alt1" unicode="&#xf711;" 
d="M-207 690q0 -40 -29 -65q-27 -22 -70 -22q-42 0 -69 22q-29 25 -29 65t29 64q27 23 69 23t70 -23q29 -24 29 -64zM-306 649q43 0 43 41t-43 41q-42 0 -42 -41t42 -41z" />
    <glyph glyph-name="uni0E47.alt1" unicode="&#xf712;" 
d="M-204 618l-104 44l-94 -45q-50 0 -81 27q-32 28 -32 73t32 72q33 27 90 27h248v-55h-242q-62 0 -62 -44q0 -42 41 -47l98 46l106 -42v-56z" />
    <glyph glyph-name="uni0E48.alt3" unicode="&#xf713;" 
d="M-215 815h-82v116h82v-116z" />
    <glyph glyph-name="uni0E49.alt3" unicode="&#xf714;" 
d="M-115 815h-250v43q0 18 -5 24q-5 5 -21 5h-26v49h63q57 0 57 -51v-20h182v-50z" />
    <glyph glyph-name="uni0E4A.alt3" unicode="&#xf715;" 
d="M-59 815h-148v29q0 30 -19 42l-64 -59l-65 59q-19 -12 -19 -42v-29h-62v43q0 37 28 59q26 19 66 20l52 -53l55 53q81 -3 89 -74h87v-48z" />
    <glyph glyph-name="uni0E4B.alt3" unicode="&#xf716;" 
d="M-156 865h-64v-50h-73v50h-64v41h64v49h73v-49h64v-41z" />
    <glyph glyph-name="uni0E4C.alt3" unicode="&#xf717;" 
d="M-201 817h-85q-34 0 -34 -29v-26h-76v39q0 66 75 66h120v-50z" />
    <glyph glyph-name="uni0E38.alt1" unicode="&#xf718;" 
d="M-57 -387h-90v96q0 31 -29 31h-41v64h80q80 0 80 -64v-127z" />
    <glyph glyph-name="uni0E39.alt1" unicode="&#xf719;" 
d="M-57 -301q0 -92 -126 -92t-126 92v30q0 13 -15 13h-35v62h42q49 0 66 -11q17 -12 17 -48v-41q0 -41 49 -41t49 41v100h79v-105z" />
    <glyph glyph-name="uni0E3A.alt1" unicode="&#xf71a;" 
d="M-50 -241q0 -55 -54 -55t-54 55t54 55t54 -55z" />
    <glyph glyph-name="uni0E0E.alt1" unicode="&#xf71b;" horiz-adv-x="585" 
d="M528 -160h-90q-77 63 -137 63q-63 0 -72 -64h-74q17 124 133 124q72 0 148 -53v455q0 121 -142 121q-115 0 -148 -80l84 -45v-30q-44 -14 -44 -74v-161q0 -96 -92 -96h-70v65h29q24 0 33 10q8 10 8 38v139q0 75 45 96l-86 50q16 69 85 111q66 41 156 41q107 0 169 -46
q65 -48 65 -136v-528z" />
    <glyph glyph-name="uni0E0F.alt1" unicode="&#xf71c;" horiz-adv-x="585" 
d="M528 -160h-87l-116 50q-33 -53 -100 -53q-59 0 -105 32l26 54q28 -28 74 -28q64 0 82 71l134 -57v456q0 121 -142 121q-115 0 -148 -80l84 -45v-30q-44 -14 -44 -74v-161q0 -96 -92 -96h-70v65h29q24 0 33 10q8 10 8 38v139q0 75 45 96l-86 50q16 69 85 111q66 41 155 41
q107 0 170 -46q65 -49 65 -136v-528z" />
    <glyph glyph-name="uni0E2C.alt1" unicode="&#xf71d;" horiz-adv-x="680" 
d="M549 0h-91l-120 302l-120 -302h-91l-84 540h88l61 -450l114 288h63l115 -288l35 295q9 64 -63 71v36l86 102h95l-99 -112q75 -15 64 -99z" />
    <glyph glyph-name="KTR" horiz-adv-x="740" 
d="M685 326q0 -179 -158 -283q-79 -52 -158 -68q-78 16 -157 68q-157 104 -157 283v261q0 114 116 114h397q117 0 117 -114v-261zM546 167v224q0 84 -58 141q-58 58 -144 58t-144 -58q-57 -57 -57 -141h88q0 52 31 84q31 31 82 31q52 0 82 -31q31 -31 31 -84v-224h89z
M319 167v224h-88v-224h88z" />
    <glyph glyph-name="sfthyphen" unicode="&#xad;" horiz-adv-x="357" 
d="M307 215h-257v70h257v-70z" />
    <glyph glyph-name="nonbreakingspace" unicode="&#xa0;" horiz-adv-x="279" 
 />
    <glyph glyph-name="uni03BC" unicode="&#x3bc;" horiz-adv-x="526" 
d="M522 8q-49 -17 -81 -17q-54 0 -61 63q-48 -62 -128 -62q-71 0 -101 48v-242h-92v664h92v-302q0 -106 110 -106q75 0 118 67v341h92v-372q0 -30 24 -30q9 0 27 8v-60z" />
    <glyph glyph-name="pi" unicode="&#x3c0;" horiz-adv-x="563" 
d="M529 5q-34 -15 -76 -15q-43 0 -62 14q-28 21 -28 76v285h-176v-365h-92v365h-81v74h528v-74h-87v-279q0 -26 27 -26q17 0 47 12v-67z" />
    <glyph glyph-name="nonmarkingreturn" 
 />
    </font>
</defs>
</svg>
